<?xml version="1.0" standalone="no"?>
<!DOCTYPE svg PUBLIC "-//W3C//DTD SVG 1.1//EN" "http://www.w3.org/Graphics/SVG/1.1/DTD/svg11.dtd" >
<svg xmlns="http://www.w3.org/2000/svg">
<metadata>
This is a custom SVG webfont generated by Font Squirrel.
Copyright   : This font drawn by and copyright Ben Weiner 19992001 Modifications for version 20 copyright Ben Weiner 20067 Licensed under the Open Font License httpscriptssilorgOFL See accompanying license and FONTLOG
</metadata>
<defs>
<font id="webfontJ25dHiGv" horiz-adv-x="1024" >
<font-face units-per-em="2048" ascent="1638" descent="-410" />
<missing-glyph horiz-adv-x="559" />
<glyph unicode=" "  horiz-adv-x="559" />
<glyph unicode="&#x09;" horiz-adv-x="559" />
<glyph unicode="&#xa0;" horiz-adv-x="559" />
<glyph unicode="!" horiz-adv-x="481" d="M330 393h-174v1053h174v-1053zM231 -27q-49 0 -81.5 34t-32.5 83t32.5 84t81.5 35q51 0 86 -34t35 -85t-35 -84t-86 -33z" />
<glyph unicode="&#x22;" horiz-adv-x="673" d="M528 1395q-98 0 -98 -115q0 -49 29.5 -155.5t56.5 -151.5h29q23 45 51.5 151.5t28.5 155.5q-1 115 -97 115zM237.5 1395q-96.5 0 -96.5 -115q0 -49 30 -155.5t56 -151.5h27q23 45 51.5 151.5t28.5 155.5q0 115 -96.5 115z" />
<glyph unicode="#" horiz-adv-x="1097" d="M911 1147l-163 -19v-159l161 16v-106l-164 -17v-198l-116 -13l2 199l-164 -19l-2 -198l-117 -12l2 198l-209 -22v106l209 23v161l-207 -22v106l209 23v154l117 12l-2 -154l166 17v153l119 17l-4 -158l163 18v-106zM467 1100v-162l164 18v160z" />
<glyph unicode="$" horiz-adv-x="1097" d="M643 -12v-193h-182v187q-209 29 -303 159l96 127q117 -137 285 -137q98 0 160.5 56.5t62.5 154.5t-96 154q-27 16 -183 71q-135 49 -196 109q-90 88 -90 242q0 117 73.5 200.5t190.5 112.5v182h182v-176q125 -23 246 -121l-90 -119q-115 96 -236 97q-182 0 -182 -187 q0 -109 188 -172q205 -70 269 -123q98 -84 98 -266q0 -297 -293 -358z" />
<glyph unicode="%" horiz-adv-x="1097" d="M264 840q-106 0 -162.5 69.5t-56.5 177.5q0 102 59.5 173t160 71t160.5 -70.5t60 -173.5q0 -111 -55 -176q-57 -71 -166 -71zM219 -160l-151 51l772 1395l141 -53zM821 -4q-113 0 -169 69.5t-56 184.5q0 104 61.5 177t164 73t162.5 -73t60 -177q0 -113 -53 -180 q-59 -74 -170 -74zM262 1217q-45 0 -72 -48q-20 -39 -20 -88q0 -47 23 -86q27 -45 71 -45q94 0 94 131q0 49 -22 88q-29 48 -74 48zM819 381q-47 0 -74 -49q-20 -39 -20 -90q0 -131 96 -131q47 0 72 45q23 37 22 86q0 51 -22 90q-27 49 -74 49z" />
<glyph unicode="&#x26;" horiz-adv-x="1136" d="M360 629q-160 -88 -159 -264q0 -109 71.5 -174.5t182.5 -65.5q135 0 227 117q-228 233 -322 387zM981 8q-80 27 -195 127q-150 -154 -321 -153q-178 0 -291 92q-123 100 -123 272q0 121 65.5 225.5t174.5 163.5q-92 127 -92 256q0 137 95 228.5t232 91.5q172 0 308 -148 l-97 -98q-92 115 -225 115q-152 0 -152 -158q0 -92 62 -213q109 45 227 49l29 -125q-109 0 -178 -33q160 -221 264 -327q29 102 29 143q0 47 -21 129l143 12q14 -92 15 -147q0 -113 -45 -246q53 -61 190 -129z" />
<glyph unicode="'" horiz-adv-x="397" d="M223 1399q-98 0 -98 -115q0 -53 35 -162q35 -115 65 -149q33 53 62.5 151.5t29.5 159.5q0 115 -94 115z" />
<glyph unicode="(" horiz-adv-x="651" d="M356 -283q-262 453 -262 945q0 514 262 942l129 -62q-213 -496 -213 -880q0 -236 64 -457q31 -111 156 -426z" />
<glyph unicode=")" horiz-adv-x="647" d="M297 -283l-137 62q127 324 155 422q66 221 66 452q0 397 -215 889l131 62q254 -416 254 -936q0 -513 -254 -951z" />
<glyph unicode="*" horiz-adv-x="563" d="M449 973l-136 123l9 -183h-97l6 183l-135 -123l-55 90l166 102l-164 105l53 90l140 -125l-9 184l97 -2l-11 -182l136 125l51 -90l-158 -103l160 -104z" />
<glyph unicode="+" horiz-adv-x="1019" d="M571 578v-381h-125v381h-337v129h337v360h125v-360h342v-129h-342z" />
<glyph unicode="," horiz-adv-x="520" d="M133 -147l90 -25q186 244 189 418h-199q0 -78 -25 -201q-24 -129 -55 -192z" />
<glyph unicode="-" horiz-adv-x="778" d="M102 547v190h574v-190h-574z" />
<glyph unicode="." horiz-adv-x="477" d="M262.5 -18q-59.5 0 -98.5 45t-39 104t39 104.5t98.5 45.5t97 -45.5t37.5 -104.5t-37.5 -104t-97 -45z" />
<glyph unicode="/" horiz-adv-x="788" d="M190 -348l-163 35l606 1755l166 -35z" />
<glyph unicode="0" d="M987 526q0 -225 -119 -376q-129 -168 -354 -168q-223 0 -354 157q-125 150 -125 385q0 223 132 374t345 151t348 -158q127 -148 127 -365zM858 526q0 168 -96 286t-250 118q-158 0 -258 -129q-90 -117 -90 -276.5t90 -282.5q100 -135 256 -136q172 0 266 132 q82 112 82 288z" />
<glyph unicode="1" d="M674 0h-156v915h-268v123h424v-1038z" />
<glyph unicode="2" d="M174 0l-2 158l338 291q98 86 137 143q45 70 45 151q-2 74 -53 125.5t-125 51.5q-137 0 -250 -148l-94 100q162 190 340 191q143 0 240.5 -86t97.5 -232q0 -207 -180 -356l-277 -231h535v-158h-752z" />
<glyph unicode="3" d="M471 -367q-188 0 -326 158l78 109q131 -125 258 -125t200 74.5t73 216.5q0 104 -62 180q-76 92 -217 92q-39 0 -137 2v129q92 0 135 12q193 59 193 252q0 84 -52.5 136.5t-124.5 52.5q-137 0 -219 -142l-104 88q160 197 319 197q139 0 232 -80q102 -90 102 -248 q0 -92 -41 -172q-43 -86 -121 -127q121 -25 193 -132t72 -240q0 -188 -124 -310.5t-327 -122.5z" />
<glyph unicode="4" d="M625 752l-383 -596h383v596zM758 0v-344h-133v344h-570v156l584 886h119v-886h205v-156h-205z" />
<glyph unicode="5" horiz-adv-x="1196" d="M487 -367q-111 0 -221 57.5t-160 137.5l72 94q125 -154 314 -153q139 0 219 106q72 96 71 234q0 129 -82 213q-74 76 -174 75q-115 0 -241 -100l-140 61v682h709v-125h-553v-456q102 102 283 102q129 0 239 -115q123 -129 123 -325q0 -184 -123 -328q-133 -160 -336 -160 z" />
<glyph unicode="6" d="M530 762q-117 0 -206 -86q-96 -92 -96.5 -231.5t75.5 -241.5q86 -117 229 -117q119 0 207 109q84 102 84 221q0 158 -83 252t-210 94zM532 -45q-207 0 -333 131q-150 154 -150 461q0 340 148 557q166 242 458 242q160 0 312 -78l-60 -125q-131 68 -254 67 q-180 0 -301 -150.5t-129 -371.5q150 213 342 213q160 0 279 -131q127 -139 127 -346q0 -186 -130.5 -327.5t-308.5 -141.5z" />
<glyph unicode="7" d="M922 907l-555 -1253l-160 45l538 1210h-587v123h764v-125z" />
<glyph unicode="8" d="M510 666q-127 -70 -180 -121q-82 -84 -82 -199q0 -139 100 -217q78 -59 172 -59q119 0 195 73.5t76 200.5q0 133 -84 213q-60 56 -197 109zM500 1245q-207 0 -207 -192q0 -154 203 -246q223 88 223 237q0 201 -219 201zM508 -57q-170 0 -289 98q-131 111 -131 299 q0 117 68 221q78 115 215 176q-113 72 -158 127q-59 76 -59 180q0 160 112 244q96 72 248 72q135 0 236 -78q109 -86 108 -223q0 -199 -221 -318q309 -129 309 -397q0 -172 -104 -278q-119 -123 -334 -123z" />
<glyph unicode="9" d="M477 913q-117 0 -196 -116q-74 -104 -74 -227.5t78 -223.5q82 -111 200 -110q133 0 227.5 101t94.5 238q0 131 -92.5 234.5t-237.5 103.5zM455 -401q-238 0 -387 145l59 125q145 -135 344 -135q170 0 272 219q84 180 88 403q-74 -131 -139 -184q-86 -74 -213 -72 q-182 2 -305 146q-117 137 -117 317q0 201 111 336q119 145 309 145q193 0 332 -131q170 -158 170 -450q0 -317 -105 -551q-138 -313 -419 -313z" />
<glyph unicode=":" horiz-adv-x="499" d="M272 737q-57 0 -97 45t-40 104.5t40 104.5t97 45q59 0 98.5 -45t39.5 -104.5t-39.5 -104.5t-98.5 -45zM272 -18q-57 0 -97 45t-40 104t40 104.5t97 45.5q59 0 98.5 -45.5t39.5 -104.5t-39.5 -104t-98.5 -45z" />
<glyph unicode=";" horiz-adv-x="520" d="M301 739q-59 0 -100 43t-41 102.5t41 103.5t100 44t97 -44t38 -103.5t-39 -102.5t-96 -43zM133 -147l90 -25q186 244 189 418h-199q0 -78 -25 -201q-24 -129 -55 -192z" />
<glyph unicode="&#x3c;" horiz-adv-x="749" d="M270 584l383 -492l-149 -6l-449 506l447 491l151 -6z" />
<glyph unicode="=" horiz-adv-x="903" d="M104 588v133h693v-133h-693zM104 276v134h693v-134h-693z" />
<glyph unicode="&#x3e;" horiz-adv-x="747" d="M203 86l-152 6l383 492l-385 493l154 6l444 -491z" />
<glyph unicode="?" horiz-adv-x="991" d="M702 760q-35 -25 -100 -78q-39 -33 -61 -90q-4 -8 -35 -105q-4 -12 4 -100h-141q-10 82 -11 131q0 96 41 166q35 59 119 130t107 97q57 66 57 131q0 90 -57.5 147.5t-147.5 57.5q-193 0 -262 -213l-137 72q117 289 393 289q156 0 263.5 -100.5t107.5 -254.5 q-1 -165 -140 -280zM449 -27q-49 0 -82 34t-33 83t32.5 84t82.5 35q51 0 85.5 -34t34.5 -85t-34.5 -84t-85.5 -33z" />
<glyph unicode="@" horiz-adv-x="2068" d="M1010 -475q-389 0 -650 289q-252 281 -251.5 674t274.5 667.5t668 274.5q391 0 622.5 -244t231.5 -637q0 -217 -150 -385q-66 -74 -176 -129q-117 -59 -209 -60q-80 0 -125 64q-41 57 -33 139q-154 -201 -344 -201q-313 0 -313 433q0 229 141 424q158 215 387 215 q70 0 138 -25q78 -31 110 -80l6 84h150l-131 -835q2 -27 25.5 -47.5t50.5 -22.5q35 -2 108 43q66 39 96 74q47 51 87 146t40 163q0 334 -190.5 536.5t-521.5 202.5q-334 0 -567.5 -233.5t-233.5 -567.5q0 -336 209 -573q219 -248 551 -248q287 0 477 82q221 96 358 318 l137 -89q-154 -258 -417 -364q-215 -88 -555 -88zM1307 815q-27 51 -101 80q-63 27 -129 27q-92 0 -196 -88q-156 -133 -156 -394q0 -135 25 -194q47 -115 190 -115q90 0 184.5 98.5t110.5 190.5z" />
<glyph unicode="A" horiz-adv-x="1163" d="M928 -20l-121 387h-461l-119 -387l-168 20l437 1339h163l443 -1331zM575 1128l-186 -620h377z" />
<glyph unicode="B" horiz-adv-x="1073" d="M545 0l-416 4v1309l340 6q4 0 27 2h28q158 0 250 -76q98 -82 98 -237q0 -172 -86 -234q-45 -31 -135 -55q313 -68 314 -342q0 -184 -121 -285q-108 -92 -291 -92h-8zM481 1198q-29 0 -170 -6v-424l142 -2h7q105 0 173 53q78 61 78 168q-3 211 -230 211zM500 639h-189 v-502h193q285 0 284 242q0 119 -83.5 189.5t-204.5 70.5z" />
<glyph unicode="C" horiz-adv-x="1103" d="M637 -16q-279 0 -434 213q-139 188 -140 477q0 279 146 469q160 207 432 209q96 0 227 -43q102 -35 162 -70l-78 -162q-186 115 -301 115q-203 0 -315 -195q-88 -154 -88 -348q0 -193 94 -336q109 -166 293 -166q174 0 328 89l79 -134q-121 -68 -196 -90 q-92 -28 -209 -28z" />
<glyph unicode="D" horiz-adv-x="1157" d="M440 -4q-51 0 -155.5 4t-155.5 4v1315q141 6 299 6q346 0 504 -158q160 -160 160 -513q0 -314 -165 -485q-168 -173 -487 -173zM897 639q0 555 -416 555q-59 0 -170 -4v-1038h185q195 0 303 151q98 135 98 336z" />
<glyph unicode="E" horiz-adv-x="1001" d="M311 1163v-395h516v-154l-516 2v-460l547 2v-158h-729v1311h735v-148h-553z" />
<glyph unicode="F" horiz-adv-x="1003" d="M311 1163v-395h520v-154h-520v-614h-182v1311h737v-148h-555z" />
<glyph unicode="G" horiz-adv-x="1191" d="M1063 125q-123 -74 -205 -102q-102 -35 -233 -35q-266 0 -420 211q-141 191 -142 470q0 245 134 445q158 238 419 238q98 0 218 -33q131 -35 196 -90l-76 -154q-170 117 -319 117q-195 0 -301 -199q-84 -156 -84 -344t88 -332q104 -170 280 -170q145 0 265 64v405h-291 v152h471v-643z" />
<glyph unicode="H" horiz-adv-x="1191" d="M883 0v614h-572v-614h-182v1311h182v-543h572v543h180v-1311h-180z" />
<glyph unicode="I" horiz-adv-x="440" d="M129 0v1315h182v-1315h-182z" />
<glyph unicode="J" horiz-adv-x="440" d="M311 141q0 -467 -409 -467q-121 0 -205 103l94 137q68 -72 137 -72q201 0 201 283v1182h182v-1166z" />
<glyph unicode="K" horiz-adv-x="1087" d="M860 -43l-452 608l-97 -143v-422h-182v1311h182v-645q330 434 512 696l144 -102l-443 -574q84 -137 273 -358l280 -324z" />
<glyph unicode="L" horiz-adv-x="1026" d="M129 0v1313h182v-1166h586v-147h-768z" />
<glyph unicode="M" horiz-adv-x="1624" d="M1290 0v1047l-397 -1049h-170l-404 1057v-1055h-167v1315h260l405 -1055l416 1055h240v-1315h-183z" />
<glyph unicode="N" horiz-adv-x="1191" d="M934 -23q-184 332 -635 973v-948l-170 -2v1319h152l614 -932v924h168v-1288z" />
<glyph unicode="O" horiz-adv-x="1318" d="M653.5 -33q-286.5 0 -444.5 209q-143 186 -143 483q0 279 159 465q168 199 443 199q272 0 436 -199q152 -186 151 -465q0 -295 -151 -485q-164 -207 -450.5 -207zM664 1171q-201 0 -322 -170q-106 -152 -106 -360q0 -201 106 -350q119 -166 311 -166q195 0 320 164 q115 152 114 350q0 207 -106 360q-118 172 -317 172z" />
<glyph unicode="P" horiz-adv-x="940" d="M500 541q-78 0 -189 8v-549h-182v1311l387 8h12q157 0 250 -104q96 -108 96 -275q0 -164 -106 -281.5t-268 -117.5zM492 1198l-181 -4v-518l160 2q102 2 164 80q59 72 59 176q0 264 -196 264h-6z" />
<glyph unicode="Q" horiz-adv-x="1347" d="M1243 -143l-250 219q-154 -109 -342 -109q-285 0 -442 211q-145 190 -146 484q0 281 160 464q170 197 445 197q272 0 434 -195q152 -182 151 -460q0 -129 -30 -254q-39 -154 -111 -226l240 -211zM661.5 1169q-200.5 0 -319.5 -168q-109 -150 -109 -356q0 -197 105 -348 q119 -172 307 -172q113 0 219 65l-153 136l110 118l158 -139q106 150 106 342q0 209 -104 357q-119 165 -319.5 165z" />
<glyph unicode="R" horiz-adv-x="1085" d="M848 -20q-104 104 -242 301q-94 133 -205 315l-90 -4v-592h-182v1313l414 6q354 -4 354 -355q0 -147 -86 -239q-84 -90 -227 -119l221 -295q82 -106 270 -291zM489 1194l-178 -4v-461h133q147 0 216 54.5t69 195.5q0 215 -227 215h-13z" />
<glyph unicode="S" horiz-adv-x="1007" d="M489 -20q-117 0 -223 40q-121 45 -182 130l94 131q125 -145 318 -146q115 0 182 62.5t67 177.5q0 137 -161 205l-301 125q-158 99 -158 303q0 159 123 262q113 94 272 94q188 0 346 -125l-86 -129q-109 98 -260 98q-209 0 -209 -207q0 -129 213 -200q223 -76 293 -135 q104 -90 105 -287q0 -190 -120 -294.5t-313 -104.5z" />
<glyph unicode="T" horiz-adv-x="1097" d="M651 1171v-1171h-182v1171h-406v138h969v-138h-381z" />
<glyph unicode="U" horiz-adv-x="1169" d="M1040 471q0 -227 -124.5 -366.5t-348.5 -139.5q-217 0 -331 148q-106 135 -107 358v840h182v-840q0 -352 260 -352q145 0 220 106q66 92 65 246v840h184v-840z" />
<glyph unicode="V" horiz-adv-x="1122" d="M637 -20h-133l-420 1310l174 47l326 -1069l325 1069l152 -47z" />
<glyph unicode="W" horiz-adv-x="1615" d="M1210 -12h-106l-291 952l-291 -952h-129l-360 1294l178 39l270 -1022l277 1001h131l268 -999l279 1020l139 -39z" />
<glyph unicode="X" horiz-adv-x="1130" d="M862 -31l-317 570l-285 -570l-186 41l381 639l-357 633l187 39l274 -498l264 500l154 -41l-338 -598l418 -674z" />
<glyph unicode="Y" horiz-adv-x="1030" d="M606 557v-557h-184v557l-363 727l164 47l297 -608l293 608l156 -47z" />
<glyph unicode="Z" horiz-adv-x="1114" d="M330 156h649v-156h-836l-14 158l659 1018l-624 -5v138h805l16 -148z" />
<glyph unicode="[" horiz-adv-x="550" d="M115 -233v1749h313v-105h-145v-1501h166v-143h-334z" />
<glyph unicode="\" horiz-adv-x="788" d="M631 -348l-606 1755l163 35l609 -1755z" />
<glyph unicode="]" horiz-adv-x="544" d="M102 -233v143h166v1501h-147v105h309v-1749h-328z" />
<glyph unicode="^" horiz-adv-x="1097" d="M547 1212l-236 -284l-86 106l322 355l325 -355l-86 -106z" />
<glyph unicode="_" horiz-adv-x="1097" d="M10 -223v121h1075v-121h-1075z" />
<glyph unicode="`" horiz-adv-x="673" d="M545 1139l-428 184l96 133l430 -196z" />
<glyph unicode="a" horiz-adv-x="1005" d="M807 -23q-84 0 -129 99q-61 -47 -107 -68q-90 -41 -204 -41q-129 0 -206 82t-77 211q0 166 100 240q66 47 248 90q70 16 221 31v129q0 68 -52 110.5t-122 42.5q-113 0 -272 -131l-84 115q63 57 168 106q115 55 188 56q141 0 237.5 -88.5t96.5 -229.5v-577q10 -41 43 -41 h2q23 0 84 43l33 -107q-68 -72 -168 -72zM653 477q-59 0 -155 -18q-55 -10 -117 -27q-147 -39 -150 -174q0 -74 42 -118t116 -44q80 0 164 43q100 51 100 131v207z" />
<glyph unicode="b" horiz-adv-x="1054" d="M557 -20q-131 0 -264 102l-29 -82h-133v1434h162v-516q139 131 256 131q209 0 328 -160q109 -143 108 -359q0 -236 -94 -380q-111 -170 -334 -170zM547 907q-186 0 -254 -147v-539q37 -49 113 -78q70 -29 135 -28q260 0 260 409q0 150 -51 252q-68 131 -203 131z" />
<glyph unicode="c" horiz-adv-x="980" d="M551 -25q-268 0 -391 207q-80 135 -80 314q0 236 119 383q127 160 350 159h6q180 -2 322 -108l-86 -135q-137 104 -259 104q-145 0 -221 -139q-61 -113 -61 -273q0 -150 74 -254q84 -117 227 -116q147 0 274 112l80 -106q-149 -148 -354 -148z" />
<glyph unicode="d" horiz-adv-x="1046" d="M918 0h-136l-24 86q-166 -113 -285 -113q-190 0 -301 174q-96 150 -96 351q0 229 102 379q119 172 338 172q143 0 242 -119v497h160v-1427zM758 778q-57 78 -105.5 103.5t-144.5 25.5q-137 0 -201 -133q-49 -100 -49 -253.5t57 -260.5q70 -135 211 -135q125 0 232 92v561 z" />
<glyph unicode="e" horiz-adv-x="1005" d="M254 526q0 -303 172 -381q68 -31 141 -30q121 0 269 131l82 -115q-164 -156 -365 -156q-279 0 -397 209q-76 133 -76 322q0 233 123 379q129 154 358 153q168 0 268.5 -108.5t100.5 -278.5v-125h-676zM768 680q0 223 -221 223q-123 0 -185.5 -60.5t-93.5 -187.5h500v25z " />
<glyph unicode="f" horiz-adv-x="663" d="M688 1333q-96 61 -176 64h-4q-83 0 -125 -88q-31 -70 -31 -166v-129h285v-133h-285v-881h-155v881h-160v133h160v135q0 162 73 264q82 115 240 115q92 0 141 -21q14 -6 115 -69z" />
<glyph unicode="g" horiz-adv-x="1046" d="M1040 815l-219 6q33 -70 33 -135q0 -154 -104 -256q-119 -115 -291 -115q-100 0 -135 25q-80 -49 -80 -111q0 -55 78 -71q37 -8 200 -8q211 0 287 -29q135 -51 135 -223q0 -176 -184 -279q-158 -88 -346 -88h-6q-129 0 -222 55q-111 68 -110 189q0 133 141 266 q-45 16 -87 70.5t-42 101.5q0 55 49 104l84 84q-127 109 -129 285q0 154 119 266q108 100 264 101h6q94 -2 181 -47q76 -41 112 -97l266 41v-135zM713 690q0 96 -72 170q-68 68 -168 68q-102 0 -164.5 -76t-62.5 -174t62.5 -169t158.5 -71q113 0 182 74q64 65 64 178z M786 -109q0 133 -233 134q-92 0 -203 -7q-51 -2 -92 -73q-37 -63 -37 -119q0 -84 82 -131q68 -37 158 -37q117 0 213 57q112 67 112 176z" />
<glyph unicode="h" horiz-adv-x="1048" d="M760 0v666q0 100 -45 165q-51 76 -148 76q-80 0 -174 -65q-102 -70 -102 -146v-696h-162v1425h162v-526q158 147 293 148q143 0 239.5 -105.5t96.5 -249.5v-692h-160z" />
<glyph unicode="i" horiz-adv-x="477" d="M240 1233q-47 0 -79 32.5t-32 80t32 79t79 31.5t77.5 -31.5t30.5 -79t-30.5 -80t-77.5 -32.5zM145 0v1014h166v-1014h-166z" />
<glyph unicode="j" horiz-adv-x="477" d="M266 1237q-47 0 -78.5 31.5t-31.5 79t31.5 79t78.5 31.5t79 -31.5t32 -79t-32 -79t-79 -31.5zM119 -223q-61 -45 -146 -70l66 -153q295 113 295 313v1147h-162v-1057q0 -141 -53 -180z" />
<glyph unicode="k" horiz-adv-x="974" d="M809 -51l-449 514l-69 -70v-393h-162v1427h162v-862l446 502l140 -94l-406 -416l481 -520z" />
<glyph unicode="l" horiz-adv-x="479" d="M319 0h-159v1430h159v-1430z" />
<glyph unicode="m" horiz-adv-x="1589" d="M1298 0v709q0 199 -180 198q-55 0 -141 -65q-104 -80 -105 -183v-659h-159v719q0 82 -44 134t-124 52t-167 -73.5t-87 -153.5v-678h-162v1014h162v-144q156 168 287 168q84 0 151.5 -53t99.5 -133q172 197 324 197q127 0 217 -100.5t90 -229.5v-719h-162z" />
<glyph unicode="n" horiz-adv-x="1048" d="M760 0v666q0 100 -45 165q-51 76 -148 76q-84 0 -174 -65q-102 -74 -102 -170v-672h-162v1014h162v-115q80 76 133 105q76 43 162 43q141 0 237.5 -105.5t96.5 -249.5v-692h-160z" />
<glyph unicode="o" horiz-adv-x="1118" d="M563 -23q-276 0 -399 207q-84 141 -84 332q0 264 166 412q135 121 319 121q182 0 314 -121q160 -147 159 -412q0 -184 -94 -334q-129 -205 -381 -205zM575 911q-162 0 -247 -127q-72 -111 -72 -280q0 -162 68 -266q80 -127 231 -127q158 0 238 129q70 109 69 274 q0 158 -63 266q-77 131 -224 131z" />
<glyph unicode="p" horiz-adv-x="1058" d="M528 -27q-129 0 -237 117v-493h-162v1417h162v-96q135 131 239 131q453 0 453 -502q0 -246 -100 -397q-119 -177 -355 -177zM528 911q-76 0 -146.5 -48t-90.5 -118v-538q125 -96 248 -96q131 0 204 143q61 121 62 264q-1 393 -277 393z" />
<glyph unicode="q" horiz-adv-x="1046" d="M754 -403v514q-190 -137 -293 -138q-193 0 -297 191q-88 156 -88 362.5t90 345.5q115 176 347 177h5q59 0 129 -35t107 -82v82h164v-1417h-164zM754 748q-23 74 -87.5 119.5t-142.5 45.5q-150 0 -219 -137q-53 -104 -53 -268q0 -139 65 -252q78 -131 209 -131 q109 0 228 92v531z" />
<glyph unicode="r" horiz-adv-x="700" d="M610 840q-36 25 -100 24h-10q-55 0 -132 -79.5t-77 -135.5v-649h-162v1014h162v-168q121 190 254 190q35 0 114 -32z" />
<glyph unicode="s" horiz-adv-x="894" d="M438 -29q-211 0 -340 119l82 125q106 -102 275 -102q72 0 133 53t61 123q0 113 -162 155q-125 33 -245 78q-119 61 -119 209t94 236q92 86 237 86h7q139 -2 295 -95l-54 -129q-143 92 -247 93q-178 0 -179 -150q0 -82 82 -110l295 -97q164 -76 164 -239 q0 -166 -105.5 -260.5t-273.5 -94.5z" />
<glyph unicode="t" horiz-adv-x="718" d="M438 -16q-115 0 -178 104q-55 88 -55 209v584h-162v135h162v207h162v-207h264v-137l-264 2v-609q0 -137 116 -137q63 0 160 92l80 -110q-115 -133 -285 -133z" />
<glyph unicode="u" horiz-adv-x="1046" d="M913 0h-145l-23 106q-152 -143 -313 -143q-139 0 -225 115q-78 106 -78 250v686h162v-678q0 -227 180 -227q86 0 184.5 71.5t98.5 155.5v678h159v-1014z" />
<glyph unicode="v" horiz-adv-x="950" d="M535 -25h-111l-379 1006l162 45l278 -790l265 790l155 -45z" />
<glyph unicode="w" horiz-adv-x="1505" d="M1149 -18h-125l-266 757l-271 -757h-129l-303 999l158 41l227 -809l252 795h144l262 -793l215 807l149 -41z" />
<glyph unicode="x" horiz-adv-x="1007" d="M842 -53l-336 442l-330 -438l-137 92l371 461l-332 446l151 90l289 -405l299 403l127 -71l-346 -453l381 -473z" />
<glyph unicode="y" horiz-adv-x="983" d="M510 -172q-35 -96 -128 -162.5t-196 -66.5q-31 0 -141 36l51 146q57 -27 103 -29h2q93 0 170 137l84 197l-394 893l158 43l309 -725l265 723l145 -35z" />
<glyph unicode="z" horiz-adv-x="987" d="M109 0v135l466 621q35 47 105 125h-551v131h741v-144l-450 -612q-23 -31 -92 -113h571v-143h-790z" />
<glyph unicode="{" horiz-adv-x="1097" d="M815 1532q-84 27 -117 27q-92 0 -120 -43q-37 -55 -37 -236q0 -45 5 -134t5 -134q0 -147 -168 -299v-51q82 -59 135 -167t53 -210q0 -55 -8 -166t-8 -166q0 -121 10 -152q20 -59 94 -59q90 0 142 43l41 -154q-123 -39 -189 -34q-193 10 -250 178q-31 90 -30 329 q0 41 4 124t4 124q0 178 -152 301l2 82q78 80 103 119q47 74 47 164q0 47 -6 139t-6 139q0 412 325 412q53 0 152 -22z" />
<glyph unicode="|" horiz-adv-x="468" d="M174 -451v1856h180v-1856h-180z" />
<glyph unicode="}" horiz-adv-x="1097" d="M731 352q0 -41 4 -124t4 -124q0 -240 -34 -335q-59 -164 -246 -172q-61 -2 -189 34l41 154q51 -43 142 -43q104 0 104 127v84q0 55 -8 165.5t-8 166.5q0 102 53 209.5t135 167.5v51q-168 152 -168 299q0 45 5 134t5 134q0 180 -36 236q-29 43 -121 43q-33 0 -117 -27 l-31 154q98 23 152 22q326 0 325 -412q0 -47 -6 -139t-6 -139q0 -90 47 -164q25 -39 103 -119l2 -82q-152 -123 -152 -301z" />
<glyph unicode="~" horiz-adv-x="808" d="M571 776q-45 0 -119.5 56.5t-109.5 56.5q-59 0 -133 -109l-39 148q76 90 178 90q72 0 168 -70q39 -29 72 -28.5t65 41.5l33 34l37 -143q-76 -76 -152 -76z" />
<glyph unicode="&#xa1;" horiz-adv-x="481" d="M139 1026h172v-1237h-172v1237zM233 1446q51 0 85 -33t34 -84t-33.5 -85t-85.5 -34q-49 0 -82.5 35t-33.5 84t33.5 83t82.5 34z" />
<glyph unicode="&#xa2;" horiz-adv-x="980" d="M461 -20q-219 33 -318 227q-66 129 -65 289q0 207 90 346q100 158 293 190v176h182v-174q129 -23 236 -104l-88 -139q-129 100 -259 100q-147 0 -221 -135q-59 -109 -59 -269q0 -150 74 -249q82 -113 225 -113q156 0 274 108l82 -110q-119 -117 -264 -141v-164h-182v162z " />
<glyph unicode="&#xa3;" horiz-adv-x="974" d="M872 -14q-106 29 -264 28q-270 0 -444 -43l-23 140q33 8 80 26q12 4 35 27q70 68 70 186q0 133 -29 266h-123v142h109q-31 184 -31 217q0 162 90 265t250 103q127 0 242 -65l-62 -125q-123 59 -168 59q-94 0 -153 -77q-53 -70 -54 -168q0 -35 35 -209h279v-142h-244 q12 -125 12 -251q0 -158 -61 -209q162 23 223 22q139 0 264 -35z" />
<glyph unicode="&#xa4;" horiz-adv-x="1001" d="M827 737h-364v-92h364v-153h-364v-336l395 2v-158h-577v492h-203l-2 153h205v94h-203l-2 152h205v420h583v-148h-401v-272h364v-154z" />
<glyph unicode="&#xa5;" horiz-adv-x="1087" d="M614 580v-37h177v-121h-177v-123h177v-121h-177v-174h-182v174h-182v121h182v123h-182v121h182v37l-364 733h184l270 -541l271 541h186z" />
<glyph unicode="&#xa6;" horiz-adv-x="372" d="M111 -37v561h157v-561h-157zM111 782v561h157v-561h-157z" />
<glyph unicode="&#xa7;" horiz-adv-x="802" d="M381 -178q-158 0 -266 106l65 101q88 -92 211 -92q49 0 92 35.5t43 82.5q0 78 -133 113q-20 6 -78 20q-25 6 -34 13q-133 45 -134 174q0 123 95 186q-94 49 -95 158q0 106 71 171.5t177 63.5q109 -2 221 -71l-45 -103q-111 70 -180 70q-66 0 -92.5 -26.5t-26.5 -92.5 q0 -35 56 -59l131 -37q199 -57 198 -209q0 -125 -84 -186q84 -49 84 -158q0 -121 -76.5 -190.5t-199.5 -69.5zM373 518q-100 -12 -101 -131q0 -45 111 -76l63 -18q80 35 80 106q0 53 -43 80q-30 19 -110 39z" />
<glyph unicode="&#xa8;" horiz-adv-x="626" d="M522 1118q-45 0 -73.5 31t-28.5 76t28.5 75.5t73.5 30.5q43 0 73 -31.5t30 -74.5q0 -45 -29 -76t-74 -31zM92 1118q-45 0 -73.5 31t-28.5 76t28.5 75.5t73.5 30.5t74 -30.5t29 -75.5t-29 -76t-74 -31z" />
<glyph unicode="&#xa9;" horiz-adv-x="1630" d="M811 209q-178 0 -279 135q-88 123 -88 307q0 180 95 301q102 131 276 133q121 0 248 -71l-49 -105q-121 74 -193 74q-131 0 -203 -125q-55 -96 -55 -223q0 -123 62 -215q70 -106 186 -107q109 0 209 58l51 -86q-143 -76 -260 -76zM270 647q0 -227 159 -386t386 -159 t386 159t159 386t-159 386t-386 159t-386 -159t-159 -386zM137 647.5q0 282.5 197.5 480t480.5 197.5t480.5 -197.5t197.5 -480t-197.5 -480.5t-480.5 -198t-480.5 198t-197.5 480.5z" />
<glyph unicode="&#xaa;" horiz-adv-x="503" />
<glyph unicode="&#xab;" horiz-adv-x="798" d="M492 586l268 -330l-146 -6l-313 342l313 332l146 -6zM203 586l266 -330l-143 -6l-316 342l316 332l143 -6z" />
<glyph unicode="&#xac;" horiz-adv-x="1255" d="M971 57v455h-791v190h963v-645h-172z" />
<glyph unicode="&#xad;" horiz-adv-x="1019" d="M106 584v129h807v-129h-807z" />
<glyph unicode="&#x2212;" horiz-adv-x="1019" d="M106 584v129h807v-129h-807z" />
<glyph unicode="&#xae;" horiz-adv-x="1630" d="M272 647h-2q0 -227 159 -386t386 -159t386 159t159 386t-159 386t-386 159t-385 -159t-158 -386zM137 647.5q0 282.5 197.5 480t480.5 197.5t480.5 -197.5t197.5 -480t-197.5 -480.5t-480.5 -198t-480.5 198t-197.5 480.5zM1006 221q-115 115 -285 393l-59 -2v-379h-117 v840q215 4 264 4q229 -2 227 -231q-2 -186 -200 -223l141 -191q47 -61 174 -184zM776 997l-114 -2v-295h86q96 0 139 34t43 126q0 139 -154 137z" />
<glyph unicode="&#xaf;" horiz-adv-x="831" d="M215 1217v133h479v-133h-479z" />
<glyph unicode="&#x2c9;" horiz-adv-x="831" d="M215 1217v133h479v-133h-479z" />
<glyph unicode="&#xb0;" horiz-adv-x="559" d="M282.5 1458q114.5 0 190.5 -75.5t76 -190.5t-76 -190.5t-190.5 -75.5t-193.5 75.5t-79 190.5t79 190.5t193.5 75.5zM283 1356q-72 0 -118 -46t-46 -118t46 -118t118 -46q70 0 113.5 47t43.5 117t-43.5 117t-113.5 47z" />
<glyph unicode="&#xb1;" horiz-adv-x="1026" d="M571 573v-378h-127v376l-335 2v127h335v359h127v-359h342v-127h-342zM135 25v110h766v-110h-766z" />
<glyph unicode="&#xb2;" horiz-adv-x="2172" />
<glyph unicode="&#xb3;" horiz-adv-x="2172" />
<glyph unicode="&#xb4;" horiz-adv-x="673" d="M213 1141l-96 121l430 196l96 -133z" />
<glyph unicode="&#xb5;" horiz-adv-x="1040" d="M909 -125q-135 78 -164 250l-129 -125q-55 -45 -122 -45q-59 0 -117 27q-63 29 -88 77v-460h-150v1396h150v-700q0 -199 237 -199q74 0 144.5 67.5t70.5 141.5v692h164v-759q0 -172 80 -224q41 -27 55 -41z" />
<glyph unicode="&#x3bc;" horiz-adv-x="1040" d="M909 -125q-135 78 -164 250l-129 -125q-55 -45 -122 -45q-59 0 -117 27q-63 29 -88 77v-460h-150v1396h150v-700q0 -199 237 -199q74 0 144.5 67.5t70.5 141.5v692h164v-759q0 -172 80 -224q41 -27 55 -41z" />
<glyph unicode="&#xb6;" horiz-adv-x="1038" d="M895 0h-141v1315h141v-1315zM608 0h-141v690h-51q-315 0 -314 320q0 166 76 235.5t244 69.5h186v-1315z" />
<glyph unicode="&#xb7;" horiz-adv-x="483" d="M262 684q-61 0 -99 50t-38 111.5t38 112t99 50.5q59 0 100 -52q35 -49 35 -110.5t-35 -110.5q-41 -51 -100 -51z" />
<glyph unicode="&#x2219;" horiz-adv-x="483" d="M262 684q-61 0 -99 50t-38 111.5t38 112t99 50.5q59 0 100 -52q35 -49 35 -110.5t-35 -110.5q-41 -51 -100 -51z" />
<glyph unicode="&#xb8;" horiz-adv-x="419" d="M207 -449q-133 0 -176 99l73 69q61 -66 105 -65q74 0 74 70q0 80 -70 79q-29 0 -72 -30l-94 43l10 192l119 2l-8 -106q18 8 51 8q80 0 132 -51t52 -131q0 -82 -56 -130.5t-140 -48.5z" />
<glyph unicode="&#xb9;" d="M674 0h-156v915h-268v123h424v-1038z" />
<glyph unicode="&#xba;" horiz-adv-x="2172" />
<glyph unicode="&#xbb;" horiz-adv-x="804" d="M440 250l-145 6l268 330l-268 332l145 6l314 -332zM152 250l-148 6l268 330l-268 332l148 6l311 -332z" />
<glyph unicode="&#xbc;" horiz-adv-x="3147" d="M2749 752l-383 -596h383v596zM2882 0v-344h-133v344h-570v156l584 886h119v-886h205v-156h-205zM1313 135l-162 103l760 966l160 -102zM674 0h-156v915h-268v123h424v-1038z" />
<glyph unicode="&#xbd;" horiz-adv-x="2172" />
<glyph unicode="&#xbe;" horiz-adv-x="2172" />
<glyph unicode="&#xbf;" horiz-adv-x="940" d="M223 455q195 139 160 526h164q14 -76 14 -158q0 -309 -164 -450q-92 -80 -110 -101q-57 -63 -58 -131q0 -90 57.5 -147t147.5 -57q193 0 262 210l140 -69q-121 -289 -394 -289q-156 0 -264 99.5t-108 254.5q-1 203 153 312zM463 1395q49 0 82 -34t33 -83t-33 -84t-82 -35 t-85 35t-36 84q0 51 35 84t86 33z" />
<glyph unicode="&#xc0;" horiz-adv-x="1187" d="M938 -20l-121 387h-461l-116 -387l-168 20l434 1339h166l440 -1331zM588 1128l-189 -620h377zM748 1405l-429 184l97 133l430 -196z" />
<glyph unicode="&#xc1;" horiz-adv-x="1163" d="M938 -20l-121 387h-461l-116 -387l-168 20l434 1339h166l440 -1331zM588 1128l-189 -620h377zM416 1407l-97 121l431 196l96 -133z" />
<glyph unicode="&#xc2;" horiz-adv-x="1163" d="M938 -20l-121 387h-461l-116 -387l-168 20l434 1339h166l440 -1331zM588 1128l-189 -620h377zM580 1534l-281 -191v146l281 231l290 -231v-146z" />
<glyph unicode="&#xc3;" horiz-adv-x="1187" d="M938 -20l-121 387h-461l-116 -387l-168 20l434 1339h166l440 -1331zM588 1128l-189 -620h377zM745 1370q-51 0 -150 70.5t-126 70.5q-80 0 -143 -86l-56 121q29 43 87.5 72t111.5 31q51 2 144.5 -69t127.5 -71q51 0 103 52l53 -123q-18 -23 -70.5 -45.5t-81.5 -22.5z" />
<glyph unicode="&#xc4;" horiz-adv-x="1187" d="M938 -20l-121 387h-461l-116 -387l-168 20l434 1339h166l440 -1331zM588 1128l-189 -620h377zM811 1421q-102 0 -102 107q0 45 28.5 74.5t73.5 29.5q43 0 72.5 -30.5t29.5 -73.5q0 -45 -28.5 -76t-73.5 -31zM381 1421q-102 0 -102 107q0 45 28.5 74.5t73.5 29.5 q43 0 72.5 -30.5t29.5 -73.5q0 -45 -28.5 -76t-73.5 -31z" />
<glyph unicode="&#xc5;" horiz-adv-x="1187" d="M938 -20l-121 387h-461l-116 -387l-168 20l434 1339h166l440 -1331zM588 1128l-189 -620h377zM600 1405q-80 0 -133 49t-53 129q0 78 53 127t133 49t133 -49t53 -127q0 -80 -53 -129t-133 -49zM600 1671q-88 0 -88 -88q0 -90 88 -90t88 90q0 88 -88 88z" />
<glyph unicode="&#xc6;" horiz-adv-x="1765" d="M575 1128l-186 -620h377zM1130 1163v-395h517v-154l-517 2v-460l547 2v-158h-757l-113 367h-461l-119 -387l-168 20l437 1339h163l289 -874v846h735v-148h-553z" />
<glyph unicode="&#xc7;" horiz-adv-x="1167" d="M713 -449q-131 0 -178 99l75 69q57 -66 105 -65q72 0 71 70q0 80 -67 79q-29 0 -72 -30l-94 43l10 174q-240 31 -373 241q-115 184 -114 443q0 281 143 469q160 207 432 209q100 0 230 -43q94 -33 159 -70l-77 -162q-186 115 -301 115q-203 0 -316 -195 q-88 -154 -88 -348q0 -193 94 -336q109 -166 293 -166q174 0 330 89l78 -134q-119 -63 -185 -86q-84 -29 -188 -32l-6 -80q18 8 51 8q80 0 132 -51t52 -131q0 -82 -56 -130.5t-140 -48.5z" />
<glyph unicode="&#xc8;" horiz-adv-x="1001" d="M322 1163v-395h516v-154l-516 2v-460l546 2v-158h-729v1311h735v-148h-552zM684 1405l-426 184l94 133l432 -196z" />
<glyph unicode="&#xc9;" horiz-adv-x="960" d="M322 1163v-395h516v-154l-516 2v-460l546 2v-158h-729v1311h735v-148h-552zM352 1407l-94 121l430 196l96 -133z" />
<glyph unicode="&#xca;" horiz-adv-x="1001" d="M322 1163v-395h516v-154l-516 2v-460l546 2v-158h-729v1311h735v-148h-552zM516 1534l-283 -191v146l283 231l291 -231v-146z" />
<glyph unicode="&#xcb;" horiz-adv-x="1001" d="M322 1163v-395h516v-154l-516 2v-460l546 2v-158h-729v1311h735v-148h-552zM747.5 1425q-45.5 0 -74 31t-28.5 76t28.5 75.5t74.5 30.5q43 0 72.5 -31.5t29.5 -74.5q0 -45 -28.5 -76t-74 -31zM319.5 1425q-45.5 0 -74 31t-28.5 76t28.5 75.5t74 30.5t73 -30.5t27.5 -75.5 t-27.5 -76t-73 -31z" />
<glyph unicode="&#xcc;" horiz-adv-x="440" d="M139 0v1315h183v-1315h-183zM406 1405l-429 184l97 133l430 -196z" />
<glyph unicode="&#xcd;" horiz-adv-x="440" d="M139 0v1315h183v-1315h-183zM74 1407l-97 121l431 196l96 -133z" />
<glyph unicode="&#xce;" horiz-adv-x="440" d="M139 0v1315h183v-1315h-183zM236 1534l-281 -191v146l281 231l290 -231v-146z" />
<glyph unicode="&#xcf;" horiz-adv-x="440" d="M139 0v1315h183v-1315h-183zM446.5 1425q-45.5 0 -74 31t-28.5 76t28.5 75.5t73.5 30.5q43 0 73 -31.5t30 -74.5q0 -45 -28.5 -76t-74 -31zM18 1425q-45 0 -73.5 31t-28.5 76t28.5 75.5t73.5 30.5t73 -30.5t28 -75.5t-28 -76t-73 -31z" />
<glyph unicode="&#xd0;" horiz-adv-x="1157" d="M311 686h140v-139h-140v-395h185q195 0 303 151q98 135 98 336q0 555 -416 555q-59 0 -170 -4v-504zM12 686h117v633q141 6 299 6q346 0 504 -157.5t160 -505.5q2 -319 -165 -492.5t-487 -173.5q-51 0 -155.5 4t-155.5 4v543h-117v139z" />
<glyph unicode="&#xd1;" horiz-adv-x="1167" d="M944 -23q-184 332 -635 973v-948l-170 -2v1319h152l614 -932v924h168v-1288zM788 1350q-51 0 -150 70.5t-126 70.5q-80 0 -143 -86l-56 121q29 43 87.5 71.5t111.5 30.5q51 2 144.5 -68.5t127.5 -70.5q51 0 103 51l53 -123q-18 -23 -70.5 -45t-81.5 -22z" />
<glyph unicode="&#xd2;" horiz-adv-x="1318" d="M664 -33q-287 0 -445 209q-143 186 -143 483q0 279 160 465q168 199 442 199q272 0 436 -199q152 -186 152 -465q0 -297 -150 -487q-163 -205 -452 -205zM674 1171q-201 0 -322 -170q-106 -152 -106 -360q0 -201 106 -350q119 -166 312 -166q195 0 319 164 q115 152 115 350q0 207 -107 360q-118 172 -317 172zM836 1405l-428 184l96 133l430 -196z" />
<glyph unicode="&#xd3;" horiz-adv-x="1318" d="M664 -33q-287 0 -445 209q-143 186 -143 483q0 279 160 465q168 199 442 199q272 0 436 -199q152 -186 152 -465q0 -297 -150 -487q-163 -205 -452 -205zM674 1171q-201 0 -322 -170q-106 -152 -106 -360q0 -201 106 -350q119 -166 312 -166q195 0 319 164 q115 152 115 350q0 207 -107 360q-118 172 -317 172zM504 1407l-96 121l430 196l96 -133z" />
<glyph unicode="&#xd4;" horiz-adv-x="1318" d="M664 -33q-287 0 -445 209q-143 186 -143 483q0 279 160 465q168 199 442 199q272 0 436 -199q152 -186 152 -465q0 -297 -150 -487q-163 -205 -452 -205zM674 1171q-201 0 -322 -170q-106 -152 -106 -360q0 -201 106 -350q119 -166 312 -166q195 0 319 164 q115 152 115 350q0 207 -107 360q-118 172 -317 172zM682 1554l-283 -190v145l283 232l291 -232v-145z" />
<glyph unicode="&#xd5;" horiz-adv-x="1327" d="M664 -33q-287 0 -445 209q-143 186 -143 483q0 279 160 465q168 199 442 199q272 0 436 -199q152 -186 152 -465q0 -297 -150 -487q-163 -205 -452 -205zM674 1171q-201 0 -322 -170q-106 -152 -106 -360q0 -201 106 -350q119 -166 312 -166q195 0 319 164 q115 152 115 350q0 207 -107 360q-118 172 -317 172zM788 1370q-51 0 -150 70.5t-126 70.5q-80 0 -143 -86l-56 121q29 43 87.5 72t111.5 31q51 2 144.5 -69t127.5 -71q51 0 103 52l53 -123q-18 -23 -70.5 -45.5t-81.5 -22.5z" />
<glyph unicode="&#xd6;" horiz-adv-x="1327" d="M664 -33q-287 0 -445 209q-143 186 -143 483q0 279 160 465q168 199 442 199q272 0 436 -199q152 -186 152 -465q0 -297 -150 -487q-163 -205 -452 -205zM674 1171q-201 0 -322 -170q-106 -152 -106 -360q0 -201 106 -350q119 -166 312 -166q195 0 319 164 q115 152 115 350q0 207 -107 360q-118 172 -317 172zM899 1425q-45 0 -73.5 31t-28.5 76t28.5 75.5t73.5 30.5q43 0 72.5 -31.5t29.5 -74.5q0 -45 -28.5 -76t-73.5 -31zM469 1425q-45 0 -73.5 31t-28.5 76t28.5 75.5t73.5 30.5q43 0 72.5 -31.5t29.5 -74.5q0 -45 -28.5 -76 t-73.5 -31z" />
<glyph unicode="&#xd8;" horiz-adv-x="1318" d="M444 190l297 973q-33 8 -77 8q-201 0 -322 -170q-106 -152 -106 -360q0 -135 51 -252q55 -127 157 -199zM895 1092l-295 -963q37 -4 53 -4q195 0 320 164q115 152 114 350q1 299 -192 453zM813 1397l160 -49l-29 -95q156 -86 238 -252q74 -154 73 -342q0 -295 -151 -485 q-164 -207 -451 -207q-57 0 -100 8l-35 -116l-160 49l35 117q-328 162 -327 634q0 279 159 465q168 199 443 199q63 0 118 -12z" />
<glyph unicode="&#xd9;" horiz-adv-x="1169" d="M1051 471q0 -227 -125 -366.5t-348 -139.5q-217 0 -332 148q-106 135 -107 358v840h183v-840q0 -352 262 -352q145 0 219 106q63 94 63 246v840h185v-840zM750 1405l-428 184l96 133l430 -196z" />
<glyph unicode="&#xda;" horiz-adv-x="1169" d="M1051 471q0 -227 -125 -366.5t-348 -139.5q-217 0 -332 148q-106 135 -107 358v840h183v-840q0 -352 262 -352q145 0 219 106q63 94 63 246v840h185v-840zM418 1407l-96 121l430 196l96 -133z" />
<glyph unicode="&#xdb;" horiz-adv-x="1169" d="M1051 471q0 -227 -125 -366.5t-348 -139.5q-217 0 -332 148q-106 135 -107 358v840h183v-840q0 -352 262 -352q145 0 219 106q63 94 63 246v840h185v-840zM580 1554l-283 -190v145l283 232l290 -232v-145z" />
<glyph unicode="&#xdc;" horiz-adv-x="1067" d="M1051 471q0 -227 -125 -366.5t-348 -139.5q-217 0 -332 148q-106 135 -107 358v840h183v-840q0 -352 262 -352q145 0 219 106q63 94 63 246v840h185v-840zM790.5 1425q-45.5 0 -74 31t-28.5 76t28.5 75.5t74.5 30.5q43 0 72.5 -31.5t29.5 -74.5q0 -45 -28.5 -76t-74 -31z M362.5 1425q-45.5 0 -74 31t-28.5 76t28.5 75.5t74 30.5t73 -30.5t27.5 -75.5t-27.5 -76t-73 -31z" />
<glyph unicode="&#xdd;" horiz-adv-x="1030" d="M616 557v-557h-182v557l-364 727l163 47l297 -608l293 608l156 -47zM395 1284l-94 121l430 197l96 -134z" />
<glyph unicode="&#xde;" horiz-adv-x="1112" d="M571 297q-143 0 -276 90v-608h-172v1655h172v-199q98 150 272 149q211 0 334 -170q109 -152 111 -370q2 -242 -97 -383q-115 -164 -344 -164zM528 1227q-162 0 -233 -152v-516q78 -123 266 -123q147 0 217 125q57 100 58 258q0 166 -68 277q-82 131 -240 131z" />
<glyph unicode="&#xdf;" horiz-adv-x="1124" d="M684 -31q-127 0 -207 29q-94 35 -170 121l86 133q57 -80 121 -107q55 -25 160 -24q74 0 131 45t57 117q0 106 -160 159l-165 52q-201 68 -201 243q0 152 83 234t234 82q41 0 80 -6q27 41 27 55q0 125 -86 180q-74 47 -164 47q-115 0 -178.5 -65.5t-63.5 -180.5v-1083 h-159v1083q0 381 411 381q176 0 287 -92q115 -98 115 -272q0 -100 -74 -223q-94 33 -197 38q-66 4 -112.5 -38.5t-46.5 -108.5q0 -49 57 -84q37 -23 141 -55l162 -54q98 -41 138 -106.5t40 -173.5q0 -135 -104.5 -230.5t-241.5 -95.5z" />
<glyph unicode="&#xe0;" horiz-adv-x="1005" d="M817 -23q-84 0 -129 99q-68 -51 -104 -68q-88 -41 -207 -41q-129 0 -206 82t-77 211q0 166 101 240q66 47 247 90q70 16 222 31v129q0 68 -52.5 110.5t-122.5 42.5q-113 0 -272 -131l-84 115q63 57 168 106q115 55 188 56q141 0 237.5 -88.5t96.5 -229.5v-577 q10 -41 43 -41q23 -2 86 43l33 -107q-68 -72 -168 -72zM664 477q-63 0 -156 -18q-29 -6 -117 -27q-145 -37 -147 -174q0 -74 41 -118t114 -44q80 0 164 43q100 51 101 131v207zM707 1139l-428 184l96 133l430 -196z" />
<glyph unicode="&#xe1;" horiz-adv-x="1005" d="M817 -23q-84 0 -129 99q-68 -51 -104 -68q-88 -41 -207 -41q-129 0 -206 82t-77 211q0 166 101 240q66 47 247 90q70 16 222 31v129q0 68 -52.5 110.5t-122.5 42.5q-113 0 -272 -131l-84 115q63 57 168 106q115 55 188 56q141 0 237.5 -88.5t96.5 -229.5v-577 q10 -41 43 -41q23 -2 86 43l33 -107q-68 -72 -168 -72zM664 477q-63 0 -156 -18q-29 -6 -117 -27q-145 -37 -147 -174q0 -74 41 -118t114 -44q80 0 164 43q100 51 101 131v207zM375 1141l-96 121l430 196l96 -133z" />
<glyph unicode="&#xe2;" horiz-adv-x="1005" d="M817 -23q-84 0 -129 99q-68 -51 -104 -68q-88 -41 -207 -41q-129 0 -206 82t-77 211q0 166 101 240q66 47 247 90q70 16 222 31v129q0 68 -52.5 110.5t-122.5 42.5q-113 0 -272 -131l-84 115q63 57 168 106q115 55 188 56q141 0 237.5 -88.5t96.5 -229.5v-577 q10 -41 43 -41q23 -2 86 43l33 -107q-68 -72 -168 -72zM664 477q-63 0 -156 -18q-29 -6 -117 -27q-145 -37 -147 -174q0 -74 41 -118t114 -44q80 0 164 43q100 51 101 131v207zM516 1268l-283 -191v146l283 231l291 -231v-146z" />
<glyph unicode="&#xe3;" horiz-adv-x="1005" d="M817 -23q-84 0 -129 99q-68 -51 -104 -68q-88 -41 -207 -41q-129 0 -206 82t-77 211q0 166 101 240q66 47 247 90q70 16 222 31v129q0 68 -52.5 110.5t-122.5 42.5q-113 0 -272 -131l-84 115q63 57 168 106q115 55 188 56q141 0 237.5 -88.5t96.5 -229.5v-577 q10 -41 43 -41q23 -2 86 43l33 -107q-68 -72 -168 -72zM664 477q-63 0 -156 -18q-29 -6 -117 -27q-145 -37 -147 -174q0 -74 41 -118t114 -44q80 0 164 43q100 51 101 131v207zM639 1124q-53 0 -153.5 71t-125.5 71q-80 0 -143 -86l-53 120q29 41 87 71t109.5 32 t145.5 -68.5t129 -70.5q47 0 102 51l54 -123q-18 -20 -70.5 -44t-81.5 -24z" />
<glyph unicode="&#xe4;" horiz-adv-x="1005" d="M817 -23q-84 0 -129 99q-68 -51 -104 -68q-88 -41 -207 -41q-129 0 -206 82t-77 211q0 166 101 240q66 47 247 90q70 16 222 31v129q0 68 -52.5 110.5t-122.5 42.5q-113 0 -272 -131l-84 115q63 57 168 106q115 55 188 56q141 0 237.5 -88.5t96.5 -229.5v-577 q10 -41 43 -41q23 -2 86 43l33 -107q-68 -72 -168 -72zM664 477q-63 0 -156 -18q-29 -6 -117 -27q-145 -37 -147 -174q0 -74 41 -118t114 -44q80 0 164 43q100 51 101 131v207zM727 1118q-45 0 -73.5 31t-28.5 76t28.5 75.5t73.5 30.5q43 0 72.5 -31.5t29.5 -74.5 q0 -45 -28.5 -76t-73.5 -31zM297 1118q-45 0 -73.5 31t-28.5 76t28.5 75.5t73.5 30.5q43 0 72.5 -31.5t29.5 -74.5q0 -45 -28.5 -76t-73.5 -31z" />
<glyph unicode="&#xe5;" horiz-adv-x="1005" d="M817 -23q-84 0 -129 99q-68 -51 -104 -68q-88 -41 -207 -41q-129 0 -206 82t-77 211q0 166 101 240q66 47 247 90q70 16 222 31v129q0 68 -52.5 110.5t-122.5 42.5q-113 0 -272 -131l-84 115q63 57 168 106q115 55 188 56q141 0 237.5 -88.5t96.5 -229.5v-577 q10 -41 43 -41q23 -2 86 43l33 -107q-68 -72 -168 -72zM664 477q-63 0 -156 -18q-29 -6 -117 -27q-145 -37 -147 -174q0 -74 41 -118t114 -44q80 0 164 43q100 51 101 131v207zM492 1159q-80 0 -132.5 49t-52.5 129q0 78 52.5 127t132 49t133 -48t53.5 -128t-52 -129 t-134 -49zM492 1425q-86 0 -86 -88q0 -90 86 -90q88 0 88 90q0 88 -88 88z" />
<glyph unicode="&#xe6;" horiz-adv-x="1587" d="M1348 680q0 223 -222 223q-150 0 -213 -74q-47 -55 -86 -215h521v66zM678 76q-35 -25 -107 -68q-90 -41 -204 -41q-129 0 -206 82t-77 211q0 166 100 240q63 47 248 90q115 27 221 37v123q0 68 -52 110.5t-122 42.5q-113 0 -272 -131l-84 115q59 53 168 106 q119 55 188 56q211 0 299 -170q133 160 365 159q164 0 270 -135q96 -123 96 -293v-125h-696q0 -133 51 -229q35 -68 123 -106q78 -35 162 -35q59 0 143 45q72 37 125 86l82 -115q-168 -156 -366 -156q-256 0 -375 175zM653 477q-47 0 -172 -24q-131 -27 -166 -45 q-84 -45 -84 -150q0 -162 158 -162q80 0 164 43q100 51 100 131v207z" />
<glyph unicode="&#xe7;" horiz-adv-x="989" d="M604 -449q-129 0 -176 99l76 69q57 -66 102 -65q74 0 74 70q0 80 -70 79q-29 0 -69 -30l-97 43l11 170q-207 37 -301 227q-63 129 -64 283q0 233 119 383q129 162 356 159q180 -2 322 -108l-86 -135q-135 104 -256 104q-147 0 -223 -139q-59 -111 -62 -273 q-2 -150 74 -254q84 -117 227 -116q147 0 275 112l79 -106q-147 -143 -344 -148l-6 -71q18 8 51 8q78 0 132.5 -52.5t54.5 -129.5q0 -82 -57.5 -130.5t-141.5 -48.5z" />
<glyph unicode="&#xe8;" horiz-adv-x="1017" d="M264 526q0 -301 174 -381q68 -31 142 -30q121 0 268 131l80 -115q-164 -156 -365 -156q-279 0 -397 209q-76 133 -76 322q0 233 123 379q129 154 358 153q168 0 268.5 -108.5t100.5 -278.5v-125h-676zM778 680q0 223 -221 223q-123 0 -188 -63q-57 -57 -90 -185h499v25z M727 1139l-426 184l94 133l432 -196z" />
<glyph unicode="&#xe9;" horiz-adv-x="1017" d="M264 526q0 -301 174 -381q68 -31 142 -30q121 0 268 131l80 -115q-164 -156 -365 -156q-279 0 -397 209q-76 133 -76 322q0 233 123 379q129 154 358 153q168 0 268.5 -108.5t100.5 -278.5v-125h-676zM778 680q0 223 -221 223q-123 0 -188 -63q-57 -57 -90 -185h499v25z M375 1141l-96 121l430 196l96 -133z" />
<glyph unicode="&#xea;" horiz-adv-x="1017" d="M264 526q0 -301 174 -381q68 -31 142 -30q121 0 268 131l80 -115q-164 -156 -365 -156q-279 0 -397 209q-76 133 -76 322q0 233 123 379q129 154 358 153q168 0 268.5 -108.5t100.5 -278.5v-125h-676zM778 680q0 223 -221 223q-123 0 -188 -63q-57 -57 -90 -185h499v25z M559 1268l-283 -191v146l283 231l291 -231v-146z" />
<glyph unicode="&#xeb;" horiz-adv-x="1017" d="M264 526q0 -301 174 -381q68 -31 142 -30q121 0 268 131l80 -115q-164 -156 -365 -156q-279 0 -397 209q-76 133 -76 322q0 233 123 379q129 154 358 153q168 0 268.5 -108.5t100.5 -278.5v-125h-676zM778 680q0 223 -221 223q-123 0 -188 -63q-57 -57 -90 -185h499v25z M747.5 1118q-45.5 0 -74 31t-28.5 76t28.5 75.5t74.5 30.5q43 0 72.5 -31.5t29.5 -74.5q0 -45 -28.5 -76t-74 -31zM319.5 1118q-45.5 0 -74 31t-28.5 76t28.5 75.5t74 30.5t73 -30.5t27.5 -75.5t-27.5 -76t-73 -31z" />
<glyph unicode="&#xec;" horiz-adv-x="509" d="M158 0v1014h164v-1014h-164zM426 1139l-426 184l94 133l432 -196z" />
<glyph unicode="&#xed;" horiz-adv-x="479" d="M158 0v1014h164v-1014h-164zM94 1141l-94 121l430 196l96 -133z" />
<glyph unicode="&#xee;" horiz-adv-x="430" d="M158 0v1014h164v-1014h-164zM236 1268l-281 -191v146l281 231l290 -231v-146z" />
<glyph unicode="&#xef;" horiz-adv-x="423" d="M158 0v1014h164v-1014h-164zM440 1118q-45 0 -73.5 31t-28.5 76t28.5 75.5t73.5 30.5q43 0 73 -31.5t30 -74.5q0 -45 -29 -76t-74 -31zM10 1118q-45 0 -72.5 31t-27.5 76t27.5 75.5t72.5 30.5t74 -30.5t29 -75.5t-29 -76t-74 -31z" />
<glyph unicode="&#xf0;" horiz-adv-x="1153" d="M877 733q-119 168 -310 168q-160 0 -243 -113q-76 -100 -78 -264q-2 -154 71 -266q82 -131 230 -131q170 0 262 123q84 113 84 287q0 106 -16 196zM434 1255h193q-92 111 -140 150l138 92q106 -102 202 -242h279l-2 -141h-193q154 -281 152 -487q-4 -295 -119 -463 q-137 -199 -418 -199q-209 0 -340 166q-121 152 -120 367q0 250 130 396t373 146q158 0 246 -90q-20 59 -88 164h-293v141z" />
<glyph unicode="&#xf1;" horiz-adv-x="995" d="M770 0v666q0 100 -45 165q-51 76 -147 76q-84 0 -175 -65q-102 -74 -102 -170v-672h-162v1014h162v-115q80 76 133 105q76 43 162 43q143 0 239.5 -105.5t96.5 -249.5v-692h-162zM682 1124q-53 0 -153.5 71t-125.5 71q-80 0 -143 -86l-53 120q29 41 87 71t109.5 32 t145.5 -68.5t129 -70.5q47 0 102 51l54 -123q-18 -20 -70.5 -44t-81.5 -24z" />
<glyph unicode="&#xf2;" horiz-adv-x="1112" d="M573 -23q-274 0 -399 207q-84 139 -84 332q0 264 166 412q137 121 322 121q182 0 313 -121q160 -145 160 -412q0 -184 -95 -334q-129 -205 -383 -205zM586 911q-162 0 -248 -127q-72 -111 -72 -280q0 -162 68 -266q80 -127 231 -127q158 0 238 129q70 109 69 274 q0 158 -63 266q-76 131 -223 131zM793 1139l-428 184l96 133l430 -196z" />
<glyph unicode="&#xf3;" horiz-adv-x="1112" d="M573 -23q-274 0 -399 207q-84 139 -84 332q0 264 166 412q137 121 322 121q182 0 313 -121q160 -145 160 -412q0 -184 -95 -334q-129 -205 -383 -205zM586 911q-162 0 -248 -127q-72 -111 -72 -280q0 -162 68 -266q80 -127 231 -127q158 0 238 129q70 109 69 274 q0 158 -63 266q-76 131 -223 131zM461 1141l-96 121l430 196l96 -133z" />
<glyph unicode="&#xf4;" horiz-adv-x="1112" d="M573 -23q-274 0 -399 207q-84 139 -84 332q0 264 166 412q137 121 322 121q182 0 313 -121q160 -145 160 -412q0 -184 -95 -334q-129 -205 -383 -205zM586 911q-162 0 -248 -127q-72 -111 -72 -280q0 -162 68 -266q80 -127 231 -127q158 0 238 129q70 109 69 274 q0 158 -63 266q-76 131 -223 131zM580 1268l-281 -191v146l281 231l290 -231v-146z" />
<glyph unicode="&#xf5;" horiz-adv-x="1112" d="M573 -23q-274 0 -399 207q-84 139 -84 332q0 264 166 412q137 121 322 121q182 0 313 -121q160 -145 160 -412q0 -184 -95 -334q-129 -205 -383 -205zM586 911q-162 0 -248 -127q-72 -111 -72 -280q0 -162 68 -266q80 -127 231 -127q158 0 238 129q70 109 69 274 q0 158 -63 266q-76 131 -223 131zM745 1124q-51 0 -150 71t-126 71q-80 0 -143 -86l-56 120q29 43 87.5 72t111.5 31q51 2 144.5 -68.5t127.5 -70.5q51 0 103 51l53 -123q-18 -23 -70.5 -45.5t-81.5 -22.5z" />
<glyph unicode="&#xf6;" horiz-adv-x="1112" d="M573 -23q-274 0 -399 207q-84 139 -84 332q0 264 166 412q137 121 322 121q182 0 313 -121q160 -145 160 -412q0 -184 -95 -334q-129 -205 -383 -205zM586 911q-162 0 -248 -127q-72 -111 -72 -280q0 -162 68 -266q80 -127 231 -127q158 0 238 129q70 109 69 274 q0 158 -63 266q-76 131 -223 131zM790.5 1118q-45.5 0 -74 31t-28.5 76t28.5 75.5t74.5 30.5q43 0 72.5 -31.5t29.5 -74.5q0 -45 -28.5 -76t-74 -31zM362.5 1118q-45.5 0 -74 31t-28.5 76t28.5 75.5t74 30.5t73 -30.5t27.5 -75.5t-27.5 -76t-73 -31z" />
<glyph unicode="&#xf7;" horiz-adv-x="1015" d="M540.5 813q-53.5 0 -88 40t-34.5 95.5t34.5 95t88 39.5t88.5 -39.5t35 -95t-35 -95.5t-88.5 -40zM109 563v144h804v-144h-804zM540.5 190q-53.5 0 -88 40t-34.5 95.5t34.5 95.5t88 40t88.5 -40t35 -95.5t-35 -95.5t-88.5 -40z" />
<glyph unicode="&#xf8;" horiz-adv-x="1118" d="M362 188l220 723h-7q-162 0 -247 -127q-72 -111 -72 -280q0 -207 106 -316zM739 852l-225 -739q12 -2 41 -2q158 0 238 129q70 109 69 274q0 236 -123 338zM666 1184l159 -49l-43 -140q256 -135 256 -479q0 -184 -94 -334q-129 -205 -381 -205q-47 0 -88 7l-39 -125 l-160 49l39 127q-119 66 -180 207q-55 123 -55 274q0 264 166 412q135 121 319 121q20 0 58 -5z" />
<glyph unicode="&#xf9;" horiz-adv-x="987" d="M924 0h-146q-6 29 -20 106q-154 -143 -316 -143q-139 0 -225 115q-78 106 -78 250v686h162v-678q0 -227 180 -227q86 0 184.5 71.5t98.5 155.5v678h160v-1014zM727 1139l-426 184l94 133l432 -196z" />
<glyph unicode="&#xfa;" horiz-adv-x="987" d="M924 0h-146q-6 29 -20 106q-154 -143 -316 -143q-139 0 -225 115q-78 106 -78 250v686h162v-678q0 -227 180 -227q86 0 184.5 71.5t98.5 155.5v678h160v-1014zM375 1141l-96 121l430 196l96 -133z" />
<glyph unicode="&#xfb;" horiz-adv-x="987" d="M924 0h-146q-6 29 -20 106q-154 -143 -316 -143q-139 0 -225 115q-78 106 -78 250v686h162v-678q0 -227 180 -227q86 0 184.5 71.5t98.5 155.5v678h160v-1014zM537 1268l-281 -191v146l281 231l290 -231v-146z" />
<glyph unicode="&#xfc;" horiz-adv-x="987" d="M924 0h-146q-6 29 -20 106q-154 -143 -316 -143q-139 0 -225 115q-78 106 -78 250v686h162v-678q0 -227 180 -227q86 0 184.5 71.5t98.5 155.5v678h160v-1014zM747.5 1118q-45.5 0 -74 31t-28.5 76t28.5 75.5t74.5 30.5q43 0 72.5 -31.5t29.5 -74.5q0 -45 -28.5 -76 t-74 -31zM319.5 1118q-45.5 0 -74 31t-28.5 76t28.5 75.5t74 30.5t73 -30.5t27.5 -75.5t-27.5 -76t-73 -31z" />
<glyph unicode="&#xfd;" horiz-adv-x="983" d="M219 1172l-96 121l430 196l96 -133zM510 -172q-35 -96 -128 -162.5t-196 -66.5q-31 0 -141 36l51 146q57 -27 103 -29h2q93 0 170 137l84 197l-394 893l158 43l309 -725l265 723l145 -35z" />
<glyph unicode="&#xfe;" horiz-adv-x="1069" d="M557 -20q-82 0 -135 26l-123 78v-483h-176v1802h170v-545q111 166 303 166q201 0 311 -145q100 -131 103 -338q2 -250 -99 -396q-116 -165 -354 -165zM567 881q-84 0 -157.5 -52.5t-110.5 -130.5l2 -499q31 -41 119 -64q72 -20 137 -20q145 0 219 137q57 109 58 266 q0 152 -56 246q-70 117 -211 117z" />
<glyph unicode="&#xff;" horiz-adv-x="956" d="M520 -172q-35 -96 -128 -162.5t-193 -66.5q-33 0 -144 36l51 146q57 -27 103 -29q94 -2 172 137l84 197l-391 893l155 43l312 -725l264 723l143 -35zM702.5 1118q-45.5 0 -74 31t-28.5 76t28.5 75.5t73.5 30.5q43 0 73 -31.5t30 -74.5q0 -45 -28.5 -76t-74 -31zM274 1118 q-45 0 -73.5 31t-28.5 76t28.5 75.5t73.5 30.5t73 -30.5t28 -75.5t-28 -76t-73 -31z" />
<glyph unicode="&#x152;" horiz-adv-x="2105" d="M1247 0v457q-182 -463 -573 -463q-287 0 -445 215q-143 193 -143 489q0 279 160 459q166 188 440 189q381 0 561 -426v409h727v-147h-542v-396h522v-153h-529l2 -461h547v-172h-727zM684 1190q-201 0 -319 -160q-106 -145 -107 -352q0 -201 104 -352q119 -172 311.5 -172 t317.5 170q113 156 113 354q0 207 -105 350q-116 162 -315 162z" />
<glyph unicode="&#x153;" horiz-adv-x="1906" d="M575 911q-162 0 -247 -127q-72 -111 -72 -280q0 -162 68 -266q80 -127 231 -127q158 0 238 129q70 109 69 274q0 158 -63 266q-77 131 -224 131zM1155 526q0 -303 172 -381q68 -31 141 -30q121 0 269 131l82 -115q-164 -156 -365 -156q-362 0 -448 338 q-113 -336 -443 -336q-276 0 -399 207q-84 141 -84 332q0 264 166 412q135 121 319 121q158 0 279 -92.5t168 -243.5q49 156 167.5 240.5t282.5 84.5q168 0 268.5 -108.5t100.5 -278.5v-125h-676zM1669 680q0 223 -221 223q-123 0 -185.5 -60.5t-93.5 -187.5h500v25z" />
<glyph unicode="&#x178;" horiz-adv-x="987" d="M616 557v-557h-182v557l-364 727l163 47l297 -608l293 608l156 -47zM770 1425q-45 0 -73.5 31t-28.5 76t28.5 75.5t73.5 30.5q43 0 72.5 -31.5t29.5 -74.5q0 -45 -28.5 -76t-73.5 -31zM340 1425q-45 0 -73.5 31t-28.5 76t28.5 75.5t73.5 30.5q43 0 72.5 -31.5t29.5 -74.5 q0 -45 -28.5 -76t-73.5 -31z" />
<glyph unicode="&#x2c6;" horiz-adv-x="690" d="M354 1268l-282 -191v146l282 231l291 -231v-146z" />
<glyph unicode="&#x2dc;" horiz-adv-x="768" d="M563 1124q-53 0 -152.5 71t-123.5 71q-80 0 -146 -86l-53 120q29 43 87 72t112 31q51 2 144 -68.5t128 -70.5q47 0 103 51l53 -123q-18 -23 -70.5 -45.5t-81.5 -22.5z" />
<glyph unicode="&#x2000;" horiz-adv-x="880" />
<glyph unicode="&#x2001;" horiz-adv-x="1761" />
<glyph unicode="&#x2002;" horiz-adv-x="880" />
<glyph unicode="&#x2003;" horiz-adv-x="1761" />
<glyph unicode="&#x2004;" horiz-adv-x="585" />
<glyph unicode="&#x2005;" horiz-adv-x="440" />
<glyph unicode="&#x2006;" horiz-adv-x="292" />
<glyph unicode="&#x2007;" horiz-adv-x="292" />
<glyph unicode="&#x2008;" horiz-adv-x="219" />
<glyph unicode="&#x2009;" horiz-adv-x="352" />
<glyph unicode="&#x200a;" horiz-adv-x="96" />
<glyph unicode="&#x2010;" horiz-adv-x="778" d="M102 547v190h574v-190h-574z" />
<glyph unicode="&#x2011;" horiz-adv-x="778" d="M102 547v190h574v-190h-574z" />
<glyph unicode="&#x2012;" horiz-adv-x="778" d="M102 547v190h574v-190h-574z" />
<glyph unicode="&#x2013;" d="M70 598v145h884v-145h-884z" />
<glyph unicode="&#x2014;" horiz-adv-x="2048" d="M55 598v145h1938v-145h-1938z" />
<glyph unicode="&#x2018;" horiz-adv-x="436" d="M381 1450l-90 25q-186 -244 -189 -418h199q0 78 24.5 202.5t55.5 190.5z" />
<glyph unicode="&#x2019;" horiz-adv-x="493" d="M96 1081l90 -24q186 244 189 418h-199q0 -78 -24 -201q-25 -130 -56 -193z" />
<glyph unicode="&#x201a;" horiz-adv-x="438" d="M199 -262l-113 -8q2 2 59 92q37 57 45 98q-131 6 -131 148q0 55 42 98t98 43q53 0 95 -44t42 -97q-2 -92 -41 -177q-20 -42 -96 -153z" />
<glyph unicode="&#x201c;" horiz-adv-x="907" d="M870 1450l-90 25q-186 -244 -188 -418h199q0 78 24 202.5t55 190.5zM461 1450l-90 25q-186 -244 -189 -418h199q0 78 24.5 202.5t55.5 190.5z" />
<glyph unicode="&#x201d;" horiz-adv-x="907" d="M63 1081l91 -24q186 244 188 418h-199q0 -78 -24 -201q-25 -130 -56 -193zM473 1081l90 -24q186 244 189 418h-199q0 -78 -25 -201q-24 -130 -55 -193z" />
<glyph unicode="&#x201e;" horiz-adv-x="854" d="M63 -147l91 -25q186 244 188 418h-199q0 -78 -24 -201q-25 -129 -56 -192zM473 -147l90 -25q186 244 189 418h-199q0 -78 -25 -201q-24 -129 -55 -192z" />
<glyph unicode="&#x2022;" horiz-adv-x="577" d="M287 389q-84 0 -136.5 61.5t-52.5 145.5t53.5 144.5t135.5 60.5t134 -61.5t52 -143.5t-52 -144.5t-134 -62.5z" />
<glyph unicode="&#x2026;" horiz-adv-x="1271" d="M1034.5 -33q-61.5 0 -99.5 40t-38 102q0 63 37 102t100 39q61 0 98 -39t37 -102q0 -61 -36.5 -101.5t-98 -40.5zM647.5 -33q-61.5 0 -99.5 40t-38 102q0 63 37 102t100 39q61 0 98 -39t37 -102q0 -61 -36.5 -101.5t-98 -40.5zM260.5 -33q-61.5 0 -99.5 40t-38 102 q0 63 37 102t100 39q61 0 98 -39t37 -102q0 -61 -36.5 -101.5t-98 -40.5z" />
<glyph unicode="&#x202f;" horiz-adv-x="352" />
<glyph unicode="&#x2039;" horiz-adv-x="653" d="M303 586l268 -330l-145 -6l-311 342l311 332l145 -6z" />
<glyph unicode="&#x203a;" horiz-adv-x="649" d="M242 250l-146 6l266 330l-266 332l146 6l313 -332z" />
<glyph unicode="&#x2044;" horiz-adv-x="1099" d="M289 135l-162 103l760 966l160 -102z" />
<glyph unicode="&#x205f;" horiz-adv-x="440" />
<glyph unicode="&#x2122;" horiz-adv-x="1312" d="M356 645h-131v563h-194v107h508v-107h-183v-563zM1137 1053l-156 -408h-111l-157 412v-412h-123v674h160l182 -469l182 469h154v-674h-131v408z" />
<glyph unicode="&#xe000;" horiz-adv-x="1040" d="M0 1040h1040v-1040h-1040v1040z" />
<glyph unicode="&#xfb01;" horiz-adv-x="1140" d="M904 1233q-47 0 -79 32.5t-32 80t32 79t79 31.5t77.5 -31.5t30.5 -79t-30.5 -80t-77.5 -32.5zM809 0v1014h166v-1014h-166zM688 1333q-96 61 -176 64h-4q-83 0 -125 -88q-31 -70 -31 -166v-129h285v-133h-285v-881h-155v881h-160v133h160v135q0 162 73 264 q82 115 240 115q92 0 141 -21q14 -6 115 -69z" />
<glyph unicode="&#xfb02;" horiz-adv-x="1142" d="M983 0h-159v1430h159v-1430zM688 1333q-96 61 -176 64h-4q-83 0 -125 -88q-31 -70 -31 -166v-129h285v-133h-285v-881h-155v881h-160v133h160v135q0 162 73 264q82 115 240 115q92 0 141 -21q14 -6 115 -69z" />
<glyph unicode="&#xfb03;" horiz-adv-x="1804" d="M1567 1233q-47 0 -79 32.5t-32 80t32 79t79 31.5t77.5 -31.5t30.5 -79t-30.5 -80t-77.5 -32.5zM1472 0v1014h166v-1014h-166zM1352 1333q-96 61 -176 64h-4q-83 0 -125 -88q-31 -70 -31 -166v-129h285v-133h-285v-881h-155v881h-160v133h160v135q0 162 73 264 q82 115 240 115q92 0 141 -21q14 -6 115 -69zM688 1333q-96 61 -176 64h-4q-83 0 -125 -88q-31 -70 -31 -166v-129h285v-133h-285v-881h-155v881h-160v133h160v135q0 162 73 264q82 115 240 115q92 0 141 -21q14 -6 115 -69z" />
<glyph unicode="&#xfb04;" horiz-adv-x="1806" d="M1646 0h-159v1430h159v-1430zM1352 1333q-96 61 -176 64h-4q-83 0 -125 -88q-31 -70 -31 -166v-129h285v-133h-285v-881h-155v881h-160v133h160v135q0 162 73 264q82 115 240 115q92 0 141 -21q14 -6 115 -69zM688 1333q-96 61 -176 64h-4q-83 0 -125 -88 q-31 -70 -31 -166v-129h285v-133h-285v-881h-155v881h-160v133h160v135q0 162 73 264q82 115 240 115q92 0 141 -21q14 -6 115 -69z" />
</font>
</defs>
</svg>
