<?xml version="1.0" standalone="no"?>
<!DOCTYPE svg PUBLIC "-//W3C//DTD SVG 1.1//EN" "http://www.w3.org/Graphics/SVG/1.1/DTD/svg11.dtd" >
<svg xmlns="http://www.w3.org/2000/svg">
<metadata>
This is a custom SVG webfont generated by Font Squirrel.
Copyright   : 29795 251 m klein
</metadata>
<defs>
<font id="webfontVDI0DmqI" horiz-adv-x="0" >
<font-face units-per-em="2048" ascent="1638" descent="-410" />
<missing-glyph horiz-adv-x="522" />
<glyph unicode="&#xd;" horiz-adv-x="438" d="M133 -2h172v1026q0 33 -23.5 59.5t-58.5 26.5q-37 0 -63.5 -23.5t-26.5 -62.5v-1026z" />
<glyph horiz-adv-x="649" d="M-10 1343q0 -43 39 -75.5t92 -54t109.5 -32t91.5 -10.5q29 0 84 11.5t109 32t94 50t40 66.5q0 33 -18.5 64.5t-52.5 31.5q-8 0 -30 -14t-55.5 -30.5t-76.5 -31t-92 -14.5q-51 0 -95.5 14.5t-79 32t-57 32t-31.5 14.5q-31 0 -51 -29t-20 -58z" />
<glyph />
<glyph horiz-adv-x="495" d="M80 1346q0 -35 13 -64t37 -50.5t53.5 -33.5t62.5 -12q68 0 119 45t51 115q0 35 -14.5 63.5t-37 50t-53 33.5t-63.5 12q-68 0 -118 -44.5t-50 -114.5zM172 1346q0 31 22.5 52t53.5 21q29 0 51.5 -22.5t22.5 -53.5q0 -29 -21.5 -50t-50.5 -21q-33 0 -55.5 19.5t-22.5 54.5z " />
<glyph unicode="&#xa;" horiz-adv-x="1247" d="M102 438q12 -16 27.5 -32.5t32.5 -28.5l133 129q76 -59 172 -60q96 0 172 58l127 -129l33 29q16 15 30 32l-129 129q57 80 58 174q0 94 -56 172l129 123q-31 41 -63 66l-127 -129q-76 57 -172 57t-176 -57l-131 127l-31 -32q-14 -15 -27 -34l127 -123q-57 -76 -57 -170 q0 -96 59 -172zM268 737q0 41 15.5 77t43 62.5t62.5 42t76 15.5t77 -15.5t63.5 -42t43 -62.5t15.5 -77t-15.5 -76.5t-43 -62.5t-63.5 -42t-77 -15t-76 15t-62.5 42t-43 62.5t-15.5 76.5z" />
<glyph />
<glyph horiz-adv-x="624" d="M0 1362q0 -57 51 -78l219 -86q10 -4 22.5 -8t24.5 -4t25.5 5t26.5 9l213 84q23 10 37 30.5t14 45.5q0 35 -24.5 59.5t-59.5 24.5q-18 0 -50 -11.5t-67 -25.5t-65 -29l-50 -22q-18 6 -51 21.5t-67.5 29.5t-66.5 25.5t-50 11.5q-35 0 -58.5 -23.5t-23.5 -58.5z" />
<glyph horiz-adv-x="421" d="M-102 31q0 -27 14 -46.5t43 -19.5q20 0 37.5 13.5t23.5 31.5l508 1409q4 6 4 13v14q0 29 -15 50.5t-44 21.5q-45 0 -59 -41l-506 -1411q-6 -17 -6 -35z" />
<glyph horiz-adv-x="1116" d="M186 215q0 -29 20.5 -48.5t49.5 -19.5t47 19l256 254l248 -248q20 -20 51 -20q29 0 49.5 19t20.5 48t-21 49l-250 250l250 250q20 20 21 49q0 29 -19.5 49.5t-48.5 20.5t-51 -23l-250 -248l-250 250q-20 20 -51 21q-29 0 -48.5 -18.5t-19.5 -47.5t21 -49l252 -252 l-256 -256q-21 -20 -21 -49z" />
<glyph horiz-adv-x="1024" />
<glyph />
<glyph />
<glyph />
<glyph />
<glyph unicode=" "  horiz-adv-x="522" />
<glyph unicode="&#x09;" horiz-adv-x="522" />
<glyph unicode="&#xa0;" horiz-adv-x="522" />
<glyph unicode="!" horiz-adv-x="430" d="M106 78q0 -45 33 -75t76 -30q45 0 77 31t32 78t-33 76.5t-78 29.5q-47 0 -77 -32.5t-30 -77.5zM131 301l170 -2v1120q0 35 -26.5 61.5t-61.5 26.5t-58.5 -25.5t-23.5 -60.5v-1120z" />
<glyph unicode="&#x22;" horiz-adv-x="587" d="M102 1014h129l41 461h-129zM315 1014h129l41 461h-129z" />
<glyph unicode="#" horiz-adv-x="1251" d="M100 494q0 -16 13.5 -29.5t29.5 -13.5h207q-2 -12 -9 -48l-16 -79l-20 -97l-18 -94l-15 -74q-6 -31 -6 -36q0 -16 11.5 -27.5t27.5 -11.5q20 0 34.5 13t18.5 32l88 426h236l-18 -87l-30 -141l-28 -135q-12 -61 -12 -74q0 -16 12 -25t27 -9q20 0 36.5 12t20.5 33l86 420 h213q25 0 44.5 17t19.5 44q0 16 -13.5 28.5t-29.5 12.5h-211l78 375h210q23 0 42.5 15t19.5 40q0 16 -12.5 28.5t-28.5 12.5h-211l92 418h-98l-90 -418h-234l92 418h-98l-92 -418h-201q-23 0 -42 -14.5t-19 -38.5q0 -18 11 -30.5t32 -12.5h199l-78 -375h-207 q-23 0 -43.5 -16t-20.5 -41zM467 551l80 375h233l-78 -375h-235z" />
<glyph unicode="$" horiz-adv-x="999" d="M47 147q23 -43 73 -74.5t108.5 -51t119 -28.5t103.5 -9v-134l79 -2v138q88 6 168 47t139.5 104.5t94.5 146.5t35 173q0 96 -39 164.5t-101.5 117.5t-140.5 82t-156 60v454q31 -6 71 -21.5t77 -31.5l67 -30q31 -13 48 -13q33 0 55 25.5t22 58.5q0 43 -41 75t-96 52 t-113.5 30.5t-91.5 10.5q0 14 2 38.5t1 48.5t-10 41t-34 17q-23 0 -30.5 -18.5t-9 -44t1 -50t2.5 -36.5q-74 0 -141.5 -34t-120 -87t-83 -121.5t-30.5 -140.5q0 -123 68.5 -206t177.5 -128l64 -26l65 -23v-569h-23q-35 0 -73 10t-75.5 27.5t-70.5 40t-57 44.5zM266 1122 q0 37 15.5 72t41 63.5t58.5 47t70 24.5l2 -422q-37 14 -70 34t-59.5 46.5t-42 59t-15.5 75.5zM530 156v540q45 -14 89.5 -35.5t80 -51t57 -70.5t21.5 -95q0 -49 -20.5 -98t-54 -89t-79 -67.5t-94.5 -33.5z" />
<glyph unicode="%" horiz-adv-x="1519" d="M80 1151q0 -68 21.5 -131.5t62.5 -112.5t99.5 -77.5t131.5 -28.5q76 0 135.5 29.5t101.5 80t63.5 116t21.5 136.5q0 70 -21.5 131.5t-62.5 108.5t-99.5 74.5t-132.5 27.5q-76 0 -135 -28.5t-101 -76.5t-63.5 -112.5t-21.5 -136.5zM217 1153q0 41 10.5 84t33 77t56 55.5 t82.5 21.5q47 0 80 -20.5t54.5 -53.5t31.5 -74t10 -82t-10 -84t-31.5 -79.5t-55.5 -60.5t-81 -24t-80.5 22.5t-55 58.5t-33 78t-11.5 81zM373 -8l129 -55l42 100l78 183l100 237l109 262l107 258l91 224l65 163q25 63 24 72q0 29 -21.5 51t-52.5 22q-20 0 -37.5 -11 t-25.5 -32zM799 313q0 -72 21.5 -135t62.5 -110.5t100 -75t135 -27.5q74 0 133.5 27.5t101.5 75t64.5 111t22.5 134.5q0 70 -21.5 133.5t-61.5 111.5t-98.5 76t-134.5 28q-74 0 -134 -28t-103 -75t-65.5 -110.5t-22.5 -135.5zM936 313q0 43 10 86t31.5 76t57.5 53.5t85 20.5 q51 0 85 -20.5t54.5 -53.5t29.5 -75t9 -85t-9 -86t-29.5 -76.5t-54.5 -54t-85 -20.5q-49 0 -84 20.5t-57.5 54t-32.5 75.5t-10 85z" />
<glyph unicode="&#x26;" horiz-adv-x="1396" d="M88 412q0 -100 38 -182.5t102.5 -140.5t149.5 -91t181 -33q137 0 261 66.5t204 177.5l229 -272l127 108l-247 297q14 20 46.5 62t66.5 90.5t58.5 95.5t24.5 78q0 35 -20.5 59.5t-55.5 20.5h-10q-25 0 -45 -18.5t-37.5 -43t-32.5 -52.5l-24 -46q-18 -31 -39 -61l-41 -58 l-336 401q49 31 97.5 66t86 78t61 95t23.5 118q0 72 -29.5 125t-77.5 88t-110.5 52t-126.5 17q-66 0 -127 -19.5t-109 -56t-78 -91t-30 -125.5q0 -43 14.5 -86.5t37 -83t51 -74.5t57.5 -66q-68 -35 -130 -86t-108.5 -115.5t-74 -139t-27.5 -154.5zM272 432q0 59 21.5 113.5 t56.5 100.5t82 82t98 58l381 -450q-27 -43 -65.5 -80t-83.5 -64.5t-95.5 -44t-99.5 -16.5q-63 0 -117.5 23.5t-93.5 64.5t-61.5 96.5t-22.5 116.5zM444 1221q0 35 15.5 60.5t41 41.5t56.5 24.5t61 8.5q61 0 112.5 -40t51.5 -106q0 -41 -19.5 -74.5t-49 -60t-64.5 -48.5 l-65 -40q-16 25 -41 51.5t-46.5 56t-37 60.5t-15.5 66z" />
<glyph unicode="'" horiz-adv-x="374" d="M102 1014h129l41 461h-129z" />
<glyph unicode="(" horiz-adv-x="417" d="M104 758q0 -31 5.5 -107t15.5 -172t25.5 -199.5t37 -188.5t48 -140t61.5 -55q25 0 51.5 17t26.5 46q0 47 -15.5 94t-25.5 94q-35 150 -55.5 303.5t-20.5 307.5q0 82 10.5 192.5t27.5 224t40.5 221t50.5 185.5l-133 25q-57 -211 -103.5 -420t-46.5 -428z" />
<glyph unicode=")" horiz-adv-x="417" d="M25 1583q20 -39 37.5 -101.5t33 -139t26.5 -160.5t20.5 -164t13.5 -148.5t4 -113.5q0 -154 -20.5 -306.5t-55.5 -302.5q-10 -41 -25.5 -89t-15.5 -89q0 -35 23.5 -54t54.5 -19q35 0 62.5 56t49 144t37 193.5t25.5 204t15 175t5 109.5q0 217 -51 424t-112 414z" />
<glyph unicode="*" horiz-adv-x="790" d="M68 1284q0 -45 38 -61l197 -84l-188 -80q-45 -20 -45 -68q0 -29 22.5 -51t50.5 -22q18 0 47 17t59 39.5t56 45.5l41 35l-22 -248h143l-23 248q14 -10 41 -34t56.5 -46.5t58.5 -39.5t47 -17q31 0 52.5 22.5t21.5 50.5q0 47 -45 68l-189 80l197 84q18 8 28.5 24.5 t10.5 34.5q0 31 -22.5 55.5t-55.5 24.5q-18 0 -39 -14l-166 -131q6 53 16.5 112.5t10.5 112.5q0 29 -21.5 47t-50.5 18t-50 -18.5t-21 -46.5q0 -53 10 -112.5t16 -112.5l-166 131q-23 14 -39 14q-31 0 -54 -24.5t-23 -53.5z" />
<glyph unicode="+" horiz-adv-x="1116" d="M94 635h395v-361q0 -29 20.5 -48t49.5 -19t49.5 18.5t20.5 46.5v361h350q29 0 50.5 20.5t21.5 48.5q0 29 -20.5 49.5t-49.5 20.5h-352v354q0 29 -19.5 49.5t-48.5 20.5q-31 0 -50 -21.5t-19 -50.5v-352h-398v-137z" />
<glyph unicode="," horiz-adv-x="380" d="M4 -188q0 -35 25.5 -61.5t60.5 -26.5q25 0 46.5 13t31.5 36l180 368l-160 78l-176 -369q-8 -15 -8 -38z" />
<glyph unicode="-" horiz-adv-x="737" d="M90 672l2 -160h488q33 0 55 23.5t22 56.5t-22.5 56.5t-54.5 23.5h-490z" />
<glyph unicode="." horiz-adv-x="368" d="M76 80q0 -43 32.5 -75t75.5 -32q45 0 77 32t32 75q0 47 -33 77.5t-78 30.5t-75.5 -32.5t-30.5 -75.5z" />
<glyph unicode="/" horiz-adv-x="833" d="M23 -14l129 -56l624 1577q6 14 6 35q0 29 -18.5 49.5t-46.5 20.5q-23 0 -42.5 -16.5t-29.5 -39.5z" />
<glyph unicode="0" horiz-adv-x="1116" d="M76 737q0 -74 9 -158.5t31.5 -168.5t58.5 -162t89 -136.5t126 -94t167 -35.5q96 0 170 35.5t127 96t89 139.5t57.5 165t30.5 172t9 162q0 74 -10 157.5t-32.5 166.5t-59.5 158t-90 133t-126 92t-165 34q-94 0 -167 -36t-126 -94t-89 -136t-58.5 -162t-31.5 -169t-9 -159z M264 737q0 45 4 106.5t15.5 128t32 131t53 117t79 84t109.5 31.5t110.5 -31.5t80 -84t53 -117t32 -131t15.5 -128t4 -106.5q0 -47 -4 -109.5t-15.5 -129t-32 -131t-54 -115.5t-82 -83t-113.5 -32q-94 0 -150.5 68.5t-87 165t-40 197.5t-9.5 169z" />
<glyph unicode="1" horiz-adv-x="1116" d="M225 1393q0 -35 23.5 -56.5t56.5 -21.5h189v-1317l178 2v1382q0 35 -23.5 64t-60.5 29h-281q-35 0 -58.5 -23.5t-23.5 -58.5z" />
<glyph unicode="2" horiz-adv-x="1114" d="M115 1040q0 -45 17.5 -77.5t70.5 -32.5q47 0 69 43q8 14 9 31q0 16 4 32q8 59 25.5 111.5t49 92.5t78.5 63.5t115 23.5q45 0 85 -15.5t69.5 -44t47 -67.5t17.5 -84q0 -59 -36 -136t-86 -153.5t-102 -146.5l-85 -115l-297 -405q-12 -16 -23.5 -38t-11.5 -42 q0 -41 36 -60.5t71 -19.5h745v162h-608l133 179l131 181l98.5 129t104.5 145.5t82.5 156.5t33.5 163t-32.5 151.5t-87 121t-127 79t-152.5 27.5q-98 0 -179 -36t-140.5 -97.5t-92 -144.5t-32.5 -177z" />
<glyph unicode="3" horiz-adv-x="1114" d="M113 326q0 -23 6 -44.5t16 -43.5q25 -59 66 -107.5t93 -82.5t112.5 -51t125.5 -17q96 0 181.5 33.5t150 95t101 144.5t36.5 181q0 119 -67.5 217.5t-177.5 141.5q80 55 121 141t41 184q0 78 -28 146.5t-77 120t-116.5 81t-147.5 29.5q-133 0 -227.5 -70.5t-133.5 -197.5 q0 2 2 1l3 -1l18 -7l18 -8q6 -4 24 -12l36 -16l35 -16q16 -7 20 -7h2q16 74 65.5 122t129.5 48q43 0 79.5 -19.5t62.5 -50t40 -70.5t14 -81q0 -84 -20.5 -132t-52 -73.5t-67.5 -36.5l-68 -19q-32 -9 -52 -23.5t-20 -49.5q0 -23 10 -43q16 -31 45 -37t59 -10 q113 -16 178.5 -80.5t65.5 -183.5q0 -61 -21.5 -111.5t-58.5 -86.5t-88 -56.5t-110 -20.5q-66 0 -108 19.5t-70.5 50.5t-46.5 65l-33 64q-16 31 -35 50.5t-47 19.5q-35 0 -59.5 -27.5t-24.5 -62.5z" />
<glyph unicode="4" horiz-adv-x="1114" d="M53 461q0 -31 11.5 -46.5t30 -23.5t41 -9t44.5 -1h539v-385h168v387h49q29 0 55.5 6t44 22.5t17.5 49.5t-17.5 49t-42 23.5t-53.5 7.5h-49v784q0 70 -39 120t-113 50q-41 0 -76.5 -21.5t-58.5 -56.5l-516 -872q-10 -16 -22.5 -38.5t-12.5 -45.5zM270 541l447 792v-792 h-447z" />
<glyph unicode="5" horiz-adv-x="1116" d="M92 217q0 -33 25.5 -63.5t61.5 -57t75 -47t65 -31.5q100 -39 197 -38q109 0 196 43t147.5 115.5t93 167.5t32.5 198q0 88 -27.5 169t-80 143.5t-127 99t-166.5 36.5q-88 0 -168 -34l61 397h477l21 160h-551q-59 0 -79.5 -17.5t-31.5 -77.5l-77 -526l-5 -28q-2 -13 -2 -25 q0 -29 22.5 -49.5t49.5 -20.5q20 0 45 10l53 22q29 11 61 21.5t66 10.5q63 0 113.5 -23.5t84.5 -64.5t51.5 -95.5t17.5 -115.5t-18.5 -123t-53.5 -112t-87 -80.5t-122 -30.5q-61 0 -113.5 23.5t-94.5 51.5l-74 53q-32 24 -50 23q-35 0 -61.5 -24.5t-26.5 -59.5z" />
<glyph unicode="6" horiz-adv-x="1114" d="M117 502q0 -98 27.5 -192.5t82 -169t135 -120t189.5 -45.5q104 0 187 41t140.5 111t88 160t30.5 188q0 92 -26.5 177t-77.5 150.5t-127 104.5t-176 39q-104 0 -195 -53q51 94 96.5 160.5t93.5 124t103 114.5l129 131q-8 4 -28.5 15.5t-42.5 25.5l-39 27q-18 12 -23 18 q-43 -45 -93 -86t-91 -88q-76 -86 -145.5 -182t-122 -201.5t-84 -218t-31.5 -231.5zM301 479q0 59 13.5 116.5t43 102.5t77.5 73t118 28t119 -30t80.5 -78t46 -107.5t14.5 -120.5t-15.5 -118.5t-47 -101.5t-80.5 -72t-117 -28q-70 0 -118 31t-77.5 79t-43 107.5t-13.5 118.5 z" />
<glyph unicode="7" horiz-adv-x="1116" d="M135 1311h666l-537 -1213q-6 -16 -6 -32q0 -35 25.5 -60.5t60.5 -25.5q27 0 49.5 14t32.5 39l575 1321q8 16 9 39q0 39 -27 59.5t-63 20.5l-785 2v-164z" />
<glyph unicode="8" horiz-adv-x="1116" d="M115 446q0 -98 31.5 -183t89 -149.5t139.5 -101.5t182 -37t182 37t140.5 101.5t90 149.5t31.5 183q0 61 -16 123t-49 113t-80 89t-111 56q82 47 135.5 134.5t53.5 181.5q0 80 -30 146.5t-80 113.5t-118.5 73.5t-146.5 26.5t-146.5 -26.5t-119.5 -73.5t-81 -113.5 t-30 -146.5q0 -102 52.5 -182t134.5 -134q-61 -18 -109.5 -56t-80.5 -90t-48 -113t-16 -122zM303 451q0 57 16.5 110t48 93t80 63.5t109.5 23.5q59 0 107.5 -22.5t82 -61.5t51 -90t17.5 -108t-16.5 -113.5t-49 -101.5t-80.5 -74t-112 -29q-61 0 -109.5 28t-80 72t-48 99.5 t-16.5 110.5zM352 1133q0 45 14.5 84.5t42 69.5t64.5 47.5t84 17.5q92 0 150.5 -63.5t58.5 -153.5q0 -45 -14.5 -87t-42 -74t-65.5 -51.5t-85 -19.5t-86 19.5t-65.5 51.5t-41 73t-14.5 86z" />
<glyph unicode="9" horiz-adv-x="1114" d="M117 983q0 -90 27.5 -173t79.5 -146.5t127 -102.5t171 -39q106 0 197 56q-47 -98 -111.5 -186.5t-138.5 -166.5l-22 -21l-43 -44l-42 -45q-18 -20 -18 -27l115 -108q4 0 21.5 15t36.5 35l35 36l19 20q84 88 161 190.5t136.5 214t94 232.5t34.5 246q0 98 -27.5 193 t-81.5 169t-136 120t-191 46t-191.5 -43t-139 -113.5t-85 -164t-28.5 -193.5zM301 1008q0 61 15.5 118.5t47 102.5t81 72.5t116.5 27.5q66 0 114 -28.5t78.5 -74.5t46 -103.5t15.5 -114.5q0 -61 -12 -122t-42 -108t-79 -76.5t-121 -29.5q-70 0 -119 29.5t-80.5 76.5t-46 108 t-14.5 122z" />
<glyph unicode=":" horiz-adv-x="407" d="M106 80q0 -43 33 -75t76 -32q45 0 77 32t32 75q0 47 -33 77.5t-78 30.5t-76 -32.5t-31 -75.5zM106 774q0 -45 32 -76.5t77 -31.5t78 31.5t33 76.5q0 47 -33 77t-78 30t-77 -31t-32 -76z" />
<glyph unicode=";" horiz-adv-x="438" d="M33 -188q0 -35 25.5 -61.5t60.5 -26.5q25 0 46 13t32 36l172 350l-160 78l-168 -351q-8 -15 -8 -38zM139 780q0 -47 32 -76.5t79 -29.5q45 0 75.5 32.5t30.5 75.5q0 45 -31.5 75t-74.5 30q-47 0 -79 -30t-32 -77z" />
<glyph unicode="&#x3c;" horiz-adv-x="1067" d="M102 737l863 -487v145l-621 342l621 342v146z" />
<glyph unicode="=" horiz-adv-x="1114" d="M59 831q0 -29 20.5 -49t49.5 -20h872v137h-870q-29 0 -50.5 -19.5t-21.5 -48.5zM109 506h872q29 0 50.5 19.5t21.5 47.5q0 29 -21.5 48.5t-50.5 19.5h-870z" />
<glyph unicode="&#x3e;" horiz-adv-x="1067" d="M102 250l863 487l-863 488v-146l621 -342l-621 -342v-145z" />
<glyph unicode="?" horiz-adv-x="952" d="M45 1204q0 -39 21.5 -68.5t62.5 -29.5q47 0 63.5 30.5t28.5 65.5v4q33 74 93.5 103.5t138.5 29.5q98 0 165.5 -58t67.5 -161q0 -76 -24.5 -120t-61.5 -68.5t-80 -35.5l-80 -22q-37 -10 -61.5 -24t-24.5 -45v-506l170 -2v428q78 12 143.5 46t112.5 85t73 119.5t26 148.5 q0 92 -36 164t-95.5 121t-139.5 73.5t-166 24.5q-92 0 -178 -32.5t-145 -104.5q-29 -35 -51.5 -77t-22.5 -89zM334 74q0 -43 32.5 -73t73.5 -30q45 0 77 30t32 75q0 47 -32 76.5t-77 29.5q-47 0 -76.5 -31.5t-29.5 -76.5z" />
<glyph unicode="@" horiz-adv-x="1576" d="M113 418q0 -145 57 -283.5t155.5 -246t230.5 -174t282 -66.5l-2 82q-35 0 -82 11t-82 23q-330 115 -420 453q-25 94 -25 195q0 135 45 258t128 217t199 150.5t257 56.5q119 0 214 -42t162.5 -115t103.5 -172t36 -214q0 -43 -6 -97.5t-19.5 -107.5t-35 -102t-50 -82 t-67.5 -69t-84 -36q-29 0 -47.5 12.5t-28.5 32t-14 43t-4 45.5q0 59 10 122l21 122q18 111 38 222l41 223h-98l-20 -121q-16 59 -69.5 95t-113.5 36q-94 0 -163.5 -57.5t-114.5 -142.5t-67.5 -180t-22.5 -171q0 -59 13 -120.5t43 -112t79 -82t121 -31.5q33 0 66.5 12 t61 33.5t49 50.5t32.5 62q-4 -39 9 -72t37.5 -55.5t58.5 -36t71 -13.5q98 0 168.5 60.5t117 148.5t68 188.5t21.5 178.5q0 137 -45.5 254t-128 202t-197.5 133t-252 48q-158 0 -293 -62.5t-233.5 -168t-154.5 -244.5t-56 -293zM571 299q0 55 12.5 140t42 165t79 138.5 t122.5 58.5q35 0 61.5 -15.5t44 -41t27 -56.5t9.5 -61q0 -33 -5.5 -87.5t-18.5 -116t-32.5 -123.5t-47 -113.5t-65.5 -83t-85 -31.5t-75 21.5t-43 55t-20.5 73.5t-5.5 77z" />
<glyph unicode="A" horiz-adv-x="1265" d="M20 63q0 -35 24 -59t60 -24q29 0 51.5 17t32.5 44l105 276h680l129 -337l176 51l-514 1349q-20 53 -48 82t-89 29q-51 0 -80 -34t-45 -77l-471 -1267q-11 -27 -11 -50zM342 473l291 805l289 -805h-580z" />
<glyph unicode="B" horiz-adv-x="1116" d="M131 0h483q94 0 176 31.5t141.5 90t94.5 138.5t35 176q0 70 -23.5 133.5t-65.5 111.5t-101.5 79t-131.5 37q98 39 150.5 115.5t52.5 181.5q0 86 -31.5 156.5t-86 120.5t-128 77t-157.5 27h-314q-41 0 -67.5 -21.5t-26.5 -64.5v-1389zM307 158v549h283q57 0 109.5 -20.5 t91 -57.5t62.5 -87t24 -110q0 -59 -24 -109.5t-62.5 -87t-91 -57t-109.5 -20.5h-283zM309 848v467h205q49 0 93 -17.5t79 -48t55.5 -72.5t20.5 -92q0 -53 -23.5 -97t-61.5 -74.5t-87 -48t-98 -17.5h-183z" />
<glyph unicode="C" horiz-adv-x="1247" d="M76 723q0 -147 43 -282.5t127 -238t206.5 -162.5t280.5 -60q92 0 191.5 21.5t177.5 74.5q29 20 58.5 45.5t29.5 66.5q0 35 -22.5 61.5t-57.5 26.5q-23 0 -53.5 -20t-74.5 -45t-104.5 -45.5t-140.5 -20.5q-123 0 -213 51.5t-148.5 135.5t-86 190.5t-27.5 214.5 q0 104 26.5 210t82 191t141.5 138t207 53q59 0 105 -11t86 -31.5t76 -52.5l77 -71l102 92q-29 57 -77 102.5t-107 76t-123.5 47t-126.5 16.5q-166 0 -289 -64.5t-203.5 -172t-121.5 -247.5t-41 -290z" />
<glyph unicode="D" horiz-adv-x="1314" d="M131 86q0 -43 28.5 -64.5t69.5 -21.5h367q164 0 284.5 61.5t200.5 165t119 239.5t39 288q0 141 -42 271t-124 230.5t-199.5 160t-269.5 59.5h-43h-86h-110h-109q-51 0 -86 1t-39 3v-1393zM307 160v1155h283q117 0 203 -49t142 -128t85 -179.5t29 -204.5 q0 -111 -25 -218.5t-80 -190.5t-143 -134t-215 -51h-279z" />
<glyph unicode="E" horiz-adv-x="915" d="M131 96q0 -41 23.5 -68.5t66.5 -27.5h662v162h-572v493h406q35 0 58.5 23.5t23.5 58.5t-24.5 57.5t-59.5 22.5h-404v496h426q35 0 59.5 23.5t24.5 58.5q0 33 -24.5 56.5t-57.5 23.5h-516h-45q-23 0 -45 4z" />
<glyph unicode="F" horiz-adv-x="843" d="M131 0h178v653h393q35 0 59.5 23.5t24.5 58.5q0 33 -25.5 56.5t-58.5 23.5h-389v500h486v162h-568q-41 0 -70.5 -25t-29.5 -68v-1384z" />
<glyph unicode="G" horiz-adv-x="1409" d="M76 725q0 -158 45 -294t131 -236.5t213 -157.5t293 -57q150 0 261 57t185 152.5t110 221.5t36 263q0 82 -27 125t-115 43h-297q-35 0 -60.5 -24.5t-25.5 -59.5t24.5 -57.5t59.5 -22.5h260q0 -98 -22.5 -194.5t-72.5 -173.5t-129 -124t-191 -47q-131 0 -223.5 49.5 t-152 132t-87 191.5t-27.5 225q0 109 27.5 216.5t86 192.5t148.5 138t213 53q68 0 116 -12t90 -33.5t83 -50.5t92 -61l103 131q-98 72 -211 126t-238 54q-170 0 -300 -59.5t-218 -163t-134 -242.5t-46 -301z" />
<glyph unicode="H" horiz-adv-x="1400" d="M131 0l176 -2v680h785v-610q0 -35 25.5 -60.5t60.5 -25.5q37 0 64.5 24.5t27.5 63.5v1407h-178v-643h-785v567q0 37 -24.5 63.5t-61.5 26.5t-63.5 -26.5t-26.5 -63.5v-1401z" />
<glyph unicode="I" horiz-adv-x="438" d="M131 0h176v1401q0 37 -24.5 63.5t-61.5 26.5t-63.5 -26.5t-26.5 -63.5v-1401zM143 1618q0 -29 22.5 -50.5t51.5 -21.5q31 0 52.5 21.5t21.5 52.5t-22.5 51.5t-51.5 20.5q-33 0 -53.5 -21.5t-20.5 -52.5z" />
<glyph unicode="J" horiz-adv-x="751" d="M25 45q55 -31 115.5 -49.5t125.5 -18.5q86 0 151.5 32t110.5 85t69 126t24 153v1030q0 37 -25 63.5t-64 26.5q-37 0 -62.5 -25.5t-25.5 -62.5v-1053q0 -47 -10 -88t-32.5 -71.5t-59.5 -49t-88 -18.5q-27 0 -49.5 7t-42.5 19l-42 22q-22 11 -44 20z" />
<glyph unicode="K" horiz-adv-x="1163" d="M131 0h178v707l705 -695q31 -31 73 -30q33 0 57.5 22.5t24.5 56.5q0 39 -30 70l-666 649l637 594l-127 115l-676 -637v553q0 39 -26.5 63.5t-63.5 24.5q-35 0 -60.5 -26.5t-25.5 -61.5v-1405z" />
<glyph unicode="L" horiz-adv-x="780" d="M131 102q0 -41 21.5 -72.5t68.5 -31.5l539 2l-2 164h-451v1239q0 37 -24.5 63.5t-61.5 26.5q-39 0 -64.5 -27.5t-25.5 -64.5v-1299z" />
<glyph unicode="M" horiz-adv-x="1748" d="M72 66q0 -37 24.5 -59.5t61.5 -22.5q39 0 62.5 22.5t29.5 59.5l178 1200l358 -1217h177l360 1217l186 -1276l177 30l-226 1360q-8 51 -47 81t-90 30t-83 -28.5t-46 -76.5l-320 -1095l-317 1095q-14 47 -47 76t-84 29t-89 -29.5t-48 -81.5l-215 -1284q-2 -10 -2 -30z" />
<glyph unicode="N" horiz-adv-x="1392" d="M131 2l176 -2v1171l793 -1153q27 -39 74 -38q37 0 62.5 25.5t25.5 62.5v1333q0 37 -26 64.5t-65 27.5q-35 0 -60.5 -28.5t-25.5 -63.5l2 -1098l-792 1151q-27 39 -74 39q-37 0 -63.5 -26.5t-26.5 -63.5v-1401z" />
<glyph unicode="O" horiz-adv-x="1437" d="M76 739q0 -145 41 -281t121.5 -241.5t201.5 -170t279 -64.5t277.5 63.5t201.5 170t123 241.5t41 280q0 143 -41 279.5t-122 242t-200.5 170t-277.5 64.5t-278.5 -63.5t-202.5 -168t-123 -241t-41 -281.5zM270 737q0 102 23.5 209t76 194t137.5 142t206 55q129 0 216 -55 t141 -143t76.5 -199t22.5 -221q0 -106 -25.5 -211t-80.5 -187.5t-141 -134t-209 -51.5q-121 0 -206 55.5t-137.5 142.5t-76 194.5t-23.5 209.5z" />
<glyph unicode="P" horiz-adv-x="1099" d="M131 72q0 -37 26.5 -63.5t63.5 -26.5t61.5 26.5t24.5 63.5v481h281q98 0 185 34t151.5 94t101.5 144t37 187q0 51 -8 92q-18 86 -61.5 154.5t-105 116.5t-139 74t-163.5 26q-113 0 -228 -5q-29 -1 -57 -1q-86 0 -170 10v-1407zM311 713v604h269q63 0 118.5 -23.5 t96.5 -64.5t65.5 -96.5t24.5 -118.5q0 -61 -23.5 -116.5t-65.5 -96.5t-97.5 -64.5t-116.5 -23.5h-271z" />
<glyph unicode="Q" horiz-adv-x="1439" d="M76 739q0 -145 41 -281t123 -242.5t202.5 -170t278.5 -63.5q117 0 223.5 42t188.5 126l208 -209l111 116l-217 215q72 109 99.5 222.5t27.5 242.5q0 143 -41 278.5t-123 242t-201.5 171t-275.5 64.5q-158 0 -278.5 -63.5t-202.5 -168t-123 -241t-41 -281.5zM268 754 q0 102 24.5 205.5t79 187.5t138.5 137t203 53q123 0 209 -51t141 -135t80.5 -189.5t25.5 -211.5q0 -92 -14 -177.5t-49 -171.5l-38 40t-50.5 51.5t-53 45t-46.5 19.5q-33 0 -56.5 -23.5t-23.5 -56.5q0 -25 20.5 -53.5t48 -57t56 -54t45.5 -42.5q-53 -66 -128 -100.5 t-161 -34.5q-127 0 -214 56.5t-139.5 145.5t-75 198.5t-22.5 218.5z" />
<glyph unicode="R" horiz-adv-x="1091" d="M131 72q0 -37 25.5 -64.5t64.5 -27.5q35 0 61.5 26.5t26.5 61.5v583l631 -700l133 110l-557 592q16 -4 31 -4h28q90 0 172 24.5t143.5 74t98.5 122t37 168.5q0 98 -35 179t-96 137.5t-144 88.5t-180 32q-111 0 -220 -4q-25 -1 -50 0q-84 0 -170 8v-1407zM309 793v518h256 q55 0 106.5 -20.5t89.5 -56.5t60.5 -85t22.5 -107q0 -53 -20.5 -98t-54.5 -79t-80 -53t-97 -19h-283z" />
<glyph unicode="S" horiz-adv-x="999" d="M0 113l111 -39q66 -23 135 -43.5t134.5 -34.5t111.5 -14q94 0 180 37.5t151.5 102t104.5 149.5t39 182q0 78 -31 140t-80 110.5t-112.5 84t-129.5 60.5q-49 18 -110.5 38.5t-113.5 50.5t-88 74t-36 111q0 47 22.5 86t59.5 65.5t81 41t87 14.5q49 0 89 -14.5t73 -30.5 l60 -31q28 -14 55 -14q33 0 55 25.5t22 58.5q0 43 -42 76t-99 53.5t-116.5 30.5t-92.5 10q-84 0 -164 -27.5t-142 -79t-100 -124t-38 -162.5q0 -117 52 -185.5t130 -111.5t169 -70.5t169 -61.5t130 -84t52 -136q0 -63 -23.5 -119t-64.5 -97.5t-96 -65.5t-119 -24 q-68 0 -122 21l-113 45q-8 2 -38 14.5t-63 24.5t-59.5 23.5t-28.5 13.5z" />
<glyph unicode="T" horiz-adv-x="901" d="M33 1313h325v-1239q0 -35 27 -62.5t64 -27.5t61.5 26.5t24.5 63.5v1239h286q33 0 58.5 22.5t25.5 57.5t-23.5 58.5t-58.5 23.5h-790v-162z" />
<glyph unicode="U" horiz-adv-x="1398" d="M131 522q0 -125 43 -225t119 -171t180.5 -108.5t224.5 -37.5q123 0 226.5 37.5t180.5 108.5t120 171t43 225v877q0 37 -27 63.5t-61 26.5q-39 0 -63.5 -26.5t-24.5 -63.5v-879q0 -88 -29 -159.5t-80 -122t-124 -78t-159 -27.5q-88 0 -160.5 27.5t-123.5 78t-80 122 t-29 159.5v961h-176v-959z" />
<glyph unicode="V" horiz-adv-x="1163" d="M-6 1434l493 -1364q14 -39 32 -62.5t63 -23.5t62.5 23.5t31.5 62.5l463 1290q4 10 6 21.5t2 23.5q0 35 -25.5 60.5t-62.5 25.5q-33 0 -53.5 -20.5t-30.5 -49.5l-391 -1136l-424 1210z" />
<glyph unicode="W" horiz-adv-x="1705" d="M31 1460l243 -1370q10 -53 46 -80.5t90 -27.5q47 0 82.5 23.5t48.5 68.5l311 1120l313 -1120q12 -45 48 -68.5t83 -23.5q53 0 88 27.5t46 80.5l231 1286q2 8 2 27q0 41 -25.5 65.5t-66.5 24.5q-37 0 -58.5 -25.5t-27.5 -60.5l-197 -1198l-346 1212h-178l-346 -1212 l-213 1282z" />
<glyph unicode="X" horiz-adv-x="1226" d="M20 66q0 -35 27 -59.5t62 -24.5q23 0 43 13t32 32l428 622l430 -622q12 -18 33 -31.5t43 -13.5q35 0 60.5 23.5t25.5 57.5q0 31 -20 62l-467 666l397 561q8 12 14.5 25.5t6.5 27.5q0 35 -28 60.5t-63 25.5q-25 0 -44 -14.5t-33 -34.5l-355 -518l-385 567l-149 -90 l430 -610l-467 -666q-21 -30 -21 -59z" />
<glyph unicode="Y" horiz-adv-x="1036" d="M-2 1407q4 -6 5 -13.5t5 -13.5l420 -688v-618q0 -39 24.5 -65.5t65.5 -26.5q39 0 64.5 26.5t25.5 65.5v618l406 666q8 12 12 23.5t4 27.5q0 35 -25.5 57.5t-60.5 22.5q-53 0 -80 -45l-346 -574l-373 631z" />
<glyph unicode="Z" horiz-adv-x="1179" d="M66 100q0 -59 44 -79.5t93 -20.5h827q35 0 63.5 22.5t28.5 57.5t-28.5 57.5t-63.5 22.5h-745l772 1159q12 18 23.5 39.5t11.5 44.5q0 29 -18.5 44t-45.5 21.5t-55 6.5h-49h-832v-156h760l-766 -1155q-20 -31 -20 -64z" />
<glyph unicode="[" horiz-adv-x="468" d="M106 -6q0 -31 22 -56.5t54 -25.5h166q31 0 53.5 22.5t22.5 53.5t-15.5 46t-37 21t-47.5 6h-45v1352h110v150h-207q-33 0 -54.5 -26t-21.5 -56v-1487z" />
<glyph unicode="\" horiz-adv-x="591" d="M102 1475l258 -1475h129l-258 1475h-129z" />
<glyph unicode="]" horiz-adv-x="468" d="M84 1487q0 -31 15.5 -46.5t37 -21.5t45.5 -6h47v-1352h-110v-149h207q33 0 54 25.5t21 56.5v1487q0 31 -21.5 56.5t-53.5 25.5h-166q-31 0 -53.5 -22.5t-22.5 -53.5z" />
<glyph unicode="^" horiz-adv-x="1181" d="M102 356h148l340 621l342 -621h147l-489 863z" />
<glyph unicode="_" horiz-adv-x="942" d="M102 -389v-55h738v55h-738z" />
<glyph unicode="`" horiz-adv-x="450" d="M-6 1378q0 -29 15.5 -49t39.5 -31l352 -137l58 152l-350 137q-16 6 -35 6q-35 0 -57.5 -21.5t-22.5 -56.5z" />
<glyph unicode="a" horiz-adv-x="1161" d="M74 549q0 -106 30.5 -207.5t90 -181.5t148.5 -129t206 -49q96 0 177 42t130 126v-158h174v1032q0 33 -23.5 59.5t-58.5 26.5q-37 0 -55.5 -13.5t-25.5 -34t-8 -46t-1 -51.5q-57 72 -138 108.5t-171 36.5q-115 0 -203 -49t-148.5 -128t-92 -179.5t-31.5 -204.5zM258 551 q0 72 17.5 144.5t54.5 132t96 96.5t143 37q86 0 142.5 -36t90.5 -92.5t47 -128t13 -141.5q0 -78 -12 -154.5t-46 -138t-93.5 -100.5t-151.5 -39q-84 0 -142.5 39t-93 99.5t-50 135t-15.5 146.5z" />
<glyph unicode="b" horiz-adv-x="1157" d="M131 68q0 -35 25.5 -63t62.5 -28q35 0 52.5 16.5t23.5 41t6 51.5v53q51 -80 132 -121t175 -41q121 0 210 49.5t147.5 130.5t87 184t28.5 212q0 100 -29.5 200.5t-88 179.5t-144.5 128t-198 49q-92 0 -175.5 -41t-138.5 -115v613h-176v-1499zM301 541q0 72 13.5 145.5 t47 133t91 97t145.5 37.5q84 0 141.5 -36.5t93 -96t51 -132.5t15.5 -142q0 -68 -15.5 -141.5t-49 -133t-89 -98.5t-137.5 -39q-90 0 -148.5 35t-94 92t-50 130t-14.5 149z" />
<glyph unicode="c" horiz-adv-x="921" d="M76 543q0 -111 31.5 -212.5t94 -178t155 -122.5t210.5 -46q33 0 83 6t97.5 22.5t81 44t33.5 72.5q0 31 -23.5 54.5t-56.5 23.5q-18 0 -43 -10l-53 -22l-59.5 -21.5t-61.5 -10.5q-78 0 -134 39t-94 98.5t-56.5 132t-18.5 138.5q0 72 18.5 143.5t56.5 128t97.5 92 t143.5 35.5q61 0 120.5 -26.5t112.5 -55.5l84 144l-78 41q-37 18 -73.5 30.5t-76.5 19.5t-89 7q-121 0 -214.5 -46t-158 -125t-97 -181t-32.5 -215z" />
<glyph unicode="d" horiz-adv-x="1163" d="M76 543q0 -98 30.5 -198.5t89 -180.5t144.5 -130t197 -50q98 0 182 44t137 128v-58q0 -31 7 -56.5t25.5 -42.5t57.5 -17q35 0 60.5 25.5t25.5 60.5v1499h-174v-623q-47 82 -127 124t-174 42q-117 0 -207 -48t-150.5 -128t-92 -182.5t-31.5 -208.5zM258 551 q0 70 17.5 140.5t55.5 128t96 93t138 35.5q90 0 147.5 -40t89.5 -101.5t44 -137t12 -147.5t-17.5 -139.5t-54 -119.5t-94 -85t-137.5 -33q-82 0 -138.5 38t-92 96.5t-51 131t-15.5 140.5z" />
<glyph unicode="e" horiz-adv-x="1101" d="M76 549q0 -115 33.5 -218.5t99 -181t160 -123.5t217.5 -46q76 0 138 17t132 46l-39 137q-53 -16 -110.5 -29.5t-114.5 -13.5q-70 0 -129.5 28t-102.5 74t-67.5 108.5t-24.5 129.5h664q55 0 81.5 18.5t26.5 77.5q0 100 -32.5 196.5t-93 171.5t-147.5 121t-196 46 q-115 0 -206 -47t-155.5 -125t-99 -179.5t-34.5 -207.5zM264 612q8 63 28.5 127t55.5 113t88 80t131 31q68 0 121 -32t90 -82t57.5 -112.5t22.5 -124.5h-594z" />
<glyph unicode="f" horiz-adv-x="518" d="M0 1020q0 -37 17.5 -54.5t43 -23.5t55 -4t56.5 2v-1376h174v1376q20 0 56 -3q13 -1 27 -1q22 0 43 3q34 5 58.5 21.5t24.5 55.5t-24.5 56.5t-58.5 21.5q-23 3 -45 2h-24q-35 -2 -57 -2v282q0 35 25.5 48.5t54.5 13.5h45q27 0 47.5 6t34.5 22.5t14 49.5q0 41 -33.5 60 t-68.5 19h-78q-100 0 -158.5 -65.5t-58.5 -163.5v-272q-23 0 -51.5 1t-55 -4.5t-45 -20.5t-18.5 -50z" />
<glyph unicode="g" horiz-adv-x="1157" d="M76 522q0 -104 29.5 -202.5t89 -176t145.5 -125t201 -47.5q98 0 180 42t135 126q2 -10 2 -22v-21q0 -82 -18.5 -154.5t-59.5 -127t-105.5 -86t-156.5 -31.5q-68 0 -131 18q-4 -37 -7 -74.5t-3 -76.5v-6q0 -6 2 -7q31 -10 64.5 -12t66.5 -2q109 0 203 39t163.5 107.5 t109.5 162t40 201.5v975q0 33 -23.5 60.5t-58.5 27.5q-37 0 -54.5 -15.5t-24.5 -39t-6 -52t1 -55.5q-53 78 -137 119t-176 41q-119 0 -207 -52t-146.5 -136t-88 -189t-29.5 -209zM258 547q0 72 17.5 144.5t54.5 130t96 93t143 35.5q72 0 138 -37q53 -31 83.5 -73.5t46 -93 t18.5 -106.5t3 -112q0 -66 -15.5 -135t-49 -127.5t-88 -96.5t-132.5 -38q-88 0 -148 37t-97 96.5t-53.5 134t-16.5 148.5z" />
<glyph unicode="h" horiz-adv-x="1122" d="M131 -4h172v700q0 53 20.5 100.5t55.5 83t82 56t100 20.5t100.5 -21.5t82 -57t55 -84t20.5 -101.5v-629q0 -35 24.5 -60.5t59.5 -25.5q37 0 62.5 26t25.5 63v626q0 88 -27.5 164t-78.5 132t-124 88t-165 32q-86 0 -164 -37t-127 -106v538q0 35 -24.5 61.5t-61.5 26.5 t-62.5 -26.5t-25.5 -63.5v-1505z" />
<glyph unicode="i" horiz-adv-x="438" d="M133 -2h172v1026q0 33 -23.5 59.5t-58.5 26.5q-37 0 -63.5 -23.5t-26.5 -62.5v-1026zM143 1352q0 -29 22.5 -50.5t51.5 -21.5q31 0 52.5 21.5t21.5 52.5t-22.5 51t-51.5 20q-33 0 -53.5 -21t-20.5 -52z" />
<glyph unicode="j" horiz-adv-x="434" d="M131 -434h172v1458q0 35 -25.5 62.5t-62.5 27.5q-39 0 -61.5 -27.5t-22.5 -64.5v-1456zM143 1352q0 -29 22.5 -50.5t51.5 -21.5q31 0 52.5 21.5t21.5 52.5t-22.5 51t-51.5 20q-33 0 -53.5 -21t-20.5 -52z" />
<glyph unicode="k" horiz-adv-x="952" d="M131 2l172 -2v524l528 -540l134 104l-541 537l428 333q16 12 27.5 31t11.5 41q0 29 -23.5 54.5t-54.5 25.5q-20 0 -37.5 -10t-34.5 -23l-436 -360v790q0 37 -24.5 63.5t-61.5 26.5t-62.5 -26.5t-25.5 -61.5v-1507z" />
<glyph unicode="l" horiz-adv-x="434" d="M131 -4l172 2v1509q0 37 -24.5 63.5t-61.5 26.5t-61.5 -26.5t-24.5 -63.5v-1511z" />
<glyph unicode="m" horiz-adv-x="1732" d="M131 0h174v723q0 49 18.5 92t51.5 76t76 51.5t92 18.5t93 -18.5t76.5 -51.5t52 -77t19.5 -93v-721h170v721q0 49 19.5 93t51.5 76t76 51.5t93 19.5t92 -19.5t75 -51.5t50.5 -76t18.5 -93v-651q0 -35 25.5 -61.5t60.5 -26.5q37 0 61.5 26.5t24.5 61.5v657 q0 178 -105.5 279.5t-282.5 101.5q-104 0 -193 -47t-138 -139q-41 92 -126 141t-184 49q-78 0 -152.5 -35t-119.5 -100q0 23 -1 46.5t-9 42.5t-24.5 31.5t-47.5 12.5q-35 0 -61.5 -26.5t-26.5 -61.5v-1022z" />
<glyph unicode="n" horiz-adv-x="1122" d="M131 -2h172v698q0 53 19.5 100.5t54.5 83t82 56t100 20.5t100.5 -21.5t83 -57t56 -84t20.5 -101.5v-629q0 -35 24.5 -60.5t59.5 -25.5q37 0 62.5 26t25.5 63v628q0 90 -27.5 166t-80 131.5t-126 86t-165.5 30.5q-84 0 -163 -37t-126 -106v49q0 27 -7 48t-24.5 35.5 t-50.5 14.5q-37 0 -63.5 -25.5t-26.5 -62.5v-1026z" />
<glyph unicode="o" horiz-adv-x="1120" d="M76 549q0 -106 31.5 -208.5t94 -183.5t152.5 -130.5t207 -49.5q115 0 205 49.5t151.5 130.5t93 183t31.5 207q0 106 -32.5 207.5t-94 180.5t-151.5 127t-205 48t-205 -48t-151.5 -127t-94 -180.5t-32.5 -205.5zM260 547q0 68 16.5 139.5t52.5 132t92 99t136 38.5 q82 0 139.5 -37.5t94 -96t53 -131.5t16.5 -142q0 -72 -16.5 -145.5t-52 -134t-94 -98.5t-142.5 -38q-80 0 -136.5 39t-91 100.5t-51 134t-16.5 140.5z" />
<glyph unicode="p" horiz-adv-x="1159" d="M131 -434h172v569q53 -76 136 -115.5t175 -39.5q117 0 205 51t146.5 133t88 185.5t29.5 207.5q0 100 -30.5 200.5t-89 178.5t-144.5 127t-198 49q-96 0 -181.5 -43t-138.5 -125q0 27 1 56.5t-6 54t-25.5 40t-57.5 15.5q-35 0 -58.5 -28.5t-23.5 -61.5v-1454zM295 537 q0 57 5 112.5t22.5 105.5t50.5 92t88 73q72 39 143 38q80 0 137.5 -39.5t92 -101t51 -134.5t16.5 -140q0 -70 -17.5 -142.5t-54 -131t-95 -95.5t-138.5 -37q-82 0 -139.5 36t-93 93.5t-52 128t-16.5 142.5z" />
<glyph unicode="q" horiz-adv-x="1161" d="M76 543q0 -102 30.5 -201.5t91 -179.5t147.5 -129t198 -49q94 0 177 41t136 116v-575h174v1456q0 35 -24.5 61.5t-59.5 26.5q-39 0 -57.5 -14.5t-25.5 -38t-7 -51.5v-56q-53 78 -137 119t-178 41q-115 0 -201 -50t-145.5 -131t-89 -182.5t-29.5 -203.5zM258 553 q0 70 16.5 142.5t51 130t92 94t141.5 36.5q55 0 106.5 -21.5t92.5 -60.5q37 -35 57.5 -76.5t30.5 -86.5t13 -93.5t3 -95.5q0 -72 -16.5 -140.5t-53 -122.5t-95 -88t-140.5 -34t-139.5 39t-92 99.5t-51 134t-16.5 143.5z" />
<glyph unicode="r" horiz-adv-x="559" d="M131 -4l174 2v565q0 104 22.5 169t55.5 103.5t73 59.5l72 36q33 15 55.5 33.5t22.5 53.5q0 41 -29.5 67.5t-70.5 26.5q-35 0 -67.5 -17.5t-59.5 -45t-47.5 -60.5t-30.5 -63l4 52q2 26 2 52q0 35 -28.5 55.5t-59.5 20.5q-35 0 -61.5 -24.5t-26.5 -61.5v-1024z" />
<glyph unicode="s" horiz-adv-x="913" d="M47 156q33 -41 81 -74t102.5 -54.5t110.5 -32.5t110 -11q70 0 141.5 19.5t129.5 59t95 99t37 139.5q0 86 -44 146.5t-108.5 102.5t-141.5 70.5t-141.5 57.5t-108.5 58.5t-44 74.5q0 37 16.5 64.5t43 46t60.5 26.5t67 8q53 0 98 -16t82 -37l65 -37q29 -16 52 -16 q35 0 56 24.5t21 55.5q0 47 -44 80.5t-104.5 56.5t-121.5 33t-98 10q-66 0 -131.5 -19.5t-118.5 -57.5t-87 -93t-34 -129q0 -82 44 -136t108.5 -92t141.5 -64.5t141.5 -56.5t108.5 -67t44 -94q0 -41 -20.5 -70.5t-51.5 -51t-68.5 -32t-72.5 -10.5q-53 0 -92 10.5t-73 29 t-68 42.5l-72 53z" />
<glyph unicode="t" horiz-adv-x="507" d="M6 1016q0 -35 18.5 -51.5t44 -21.5t54.5 -4t51 1v-940h172v940q20 0 51 -1t57.5 4t46 21.5t19.5 51.5q0 37 -19.5 53t-47 21.5t-58 4.5t-51.5 -1l2 245q0 35 -25.5 65t-62.5 30q-39 0 -62.5 -30t-23.5 -65v-245q-23 0 -51.5 1t-54 -5.5t-43 -22.5t-17.5 -51z" />
<glyph unicode="u" horiz-adv-x="1126" d="M131 406q0 -209 112.5 -316.5t319.5 -107.5t319.5 107.5t112.5 316.5v614q0 37 -24.5 63.5t-61.5 26.5q-35 0 -60.5 -26.5t-25.5 -61.5v-612q0 -129 -62.5 -202t-197.5 -73t-196.5 73t-61.5 202v661l-174 -2v-663z" />
<glyph unicode="v" horiz-adv-x="886" d="M-2 1055l356 -1006q12 -35 34 -51t58 -16q33 0 55.5 19t33.5 48q8 27 36 106l67 182l79 218l75 214l56 169q23 70 22 82q0 35 -26.5 61.5t-61.5 26.5q-31 0 -50 -17.5t-30 -46.5l-256 -770l-284 834z" />
<glyph unicode="w" horiz-adv-x="1558" d="M6 1053l328 -977q12 -39 34.5 -66.5t69.5 -27.5q43 0 65.5 25.5t35.5 62.5l241 755l240 -755q12 -37 34.5 -62.5t65.5 -25.5q47 0 68.5 27.5t36.5 66.5l311 915q6 14 6 33q0 37 -26.5 61.5t-63.5 24.5q-29 0 -52.5 -17.5t-33.5 -45.5l-248 -787l-241 762h-193l-244 -762 l-264 848z" />
<glyph unicode="x" horiz-adv-x="974" d="M20 66q0 -35 25 -58.5t59 -23.5q25 0 45.5 13t34.5 34l303 420l304 -420q14 -20 34.5 -33.5t44.5 -13.5q35 0 59.5 23.5t24.5 58.5t-20 61l-340 455l297 387q20 27 20 59q0 33 -24.5 57.5t-59.5 24.5q-25 0 -45 -14.5t-34 -34.5l-261 -350l-297 397l-143 -92l334 -434 l-340 -455q-21 -26 -21 -61z" />
<glyph unicode="y" horiz-adv-x="886" d="M4 1040l352 -1005l-33 -84l-49 -124q-25 -65 -44 -122t-19 -76q0 -37 26.5 -59.5t61.5 -22.5t54.5 23.5t29.5 52.5q8 25 34 96l61 172l79 222l86 242l84 239l73 209q32 92 50 152.5t18 70.5q0 35 -26.5 59.5t-61.5 24.5q-33 0 -53 -21.5t-31 -50.5l-250 -766l-274 822z " />
<glyph unicode="z" horiz-adv-x="923" d="M55 76q0 -35 23.5 -55.5t56.5 -20.5h662q35 0 62.5 21.5t27.5 58.5q0 35 -28 56.5t-62 21.5h-502l551 811q8 10 13 23.5t5 27.5q0 35 -22.5 54.5t-57.5 19.5h-706v-158h543l-549 -809q-17 -26 -17 -51z" />
<glyph unicode="{" horiz-adv-x="657" d="M102 737q59 -6 93 -46t34 -99v-686q0 -72 47.5 -103.5t112.5 -31.5h131v75q-41 0 -68.5 3.5t-44 15.5t-23.5 36.5t-7 69.5v607q0 59 -38 106t-99 53q61 6 99 53.5t38 106.5v606q0 80 27.5 102.5t61.5 23.5t61.5 0t27.5 32q0 16 -8 29.5t-27 13.5h-131q-66 0 -113 -32 t-47 -103v-686q0 -57 -34 -99.5t-93 -46.5z" />
<glyph unicode="|" horiz-adv-x="333" d="M102 0h129v1475h-129v-1475z" />
<glyph unicode="}" horiz-adv-x="657" d="M102 1667q0 -27 13.5 -33t31.5 -6h43q25 0 44.5 -9t33 -36t13.5 -80v-606q0 -59 38.5 -106.5t100.5 -53.5q-61 -6 -100 -52t-39 -107v-607q0 -45 -7.5 -69.5t-24 -36.5t-44 -15.5t-68.5 -3.5v-75h133q66 0 112 31.5t46 103.5v686q0 59 34 99t93 46q-59 4 -93 46t-34 100 v686q0 72 -46 103.5t-112 31.5h-133q-16 0 -25.5 -11.5t-9.5 -25.5z" />
<glyph unicode="~" horiz-adv-x="940" d="M102 598h103q2 37 17.5 76t60.5 39q47 0 92 -17.5t91 -39t92 -39t95 -17.5t84 20.5t57.5 53.5t33 75t10.5 85v22h-103q-2 -39 -18.5 -77t-61.5 -38q-47 0 -91 17.5t-90 39t-92 40t-95 18.5t-84 -20.5t-57.5 -54t-33 -75.5t-10.5 -85v-23z" />
<glyph unicode="&#xa1;" horiz-adv-x="430" d="M106 1401q0 -47 30 -79t77 -32t79 30t32 77q0 45 -32 76.5t-77 31.5q-43 0 -76 -29.5t-33 -74.5zM131 57q0 -35 23.5 -60.5t58.5 -25.5t61.5 27t26.5 61v1012l-170 -2v-1012z" />
<glyph unicode="&#xa2;" horiz-adv-x="921" d="M74 551q0 -92 24.5 -185.5t73.5 -172t124 -133t175 -66.5q0 -20 -2 -40t-2 -40q0 -10 1 -25.5t5 -30t12.5 -23.5t24.5 -9q14 0 22.5 9t12.5 22.5t5 28t1 24.5q0 20 -2 38.5t-2 37.5q27 -2 67.5 8t84.5 25.5t85 32t66 28.5l-64 127l-133 -49q-2 0 -26.5 -4t-32.5 -4h-25 q-12 0 -22 4v794q10 2 20.5 3t20.5 1q43 0 83 -16t79 -35h2q10 -4 18 -6t18 -2q33 0 56.5 27.5t23.5 58.5q0 37 -32.5 62.5t-76.5 42t-90 23.5t-73 7h-25q-12 0 -24 -2q0 20 2 41t2 41q0 10 -1 24.5t-5 28t-12.5 22.5t-22.5 9q-16 0 -24.5 -9t-13.5 -22.5t-6 -28t-1 -26.5 q0 -23 3 -45.5t3 -44.5q-94 -16 -168 -70.5t-125 -131.5t-77.5 -169t-26.5 -180zM264 563q0 53 11.5 110.5t36 109t63.5 91t96 58.5v-760q-119 57 -163 162.5t-44 228.5z" />
<glyph unicode="&#xa3;" horiz-adv-x="1220" d="M59 737q0 -35 26 -57.5t60 -22.5h213q14 -51 15 -112q0 -92 -37 -165t-81 -129t-81 -96t-37 -69q0 -35 26.5 -60.5t61.5 -25.5h914l-2 164h-762q39 33 71.5 77t56 94t37 103.5t13.5 104.5q0 31 -5 58.5t-9 57.5h280v162h-321l-35 67q-18 36 -33.5 72.5t-26 73.5t-10.5 74 q0 55 21.5 98t57.5 73t83 45t98 15q186 0 281 -168q12 -23 20.5 -47t22.5 -43q23 -33 63 -32q41 0 65.5 27.5t24.5 68.5q0 55 -34.5 111.5t-69.5 97.5q-70 80 -171 118.5t-206 38.5q-84 0 -162.5 -24.5t-140 -71.5t-98.5 -116.5t-37 -159.5t29.5 -166t70.5 -154h-166 q-35 0 -60.5 -23.5t-25.5 -58.5z" />
<glyph unicode="&#xa4;" horiz-adv-x="1247" d="M-8 547h182q23 -119 75 -222.5t133 -180t189.5 -120.5t243.5 -44q92 0 191.5 21.5t177.5 74.5q29 20 58.5 45.5t29.5 66.5q0 35 -22.5 61.5t-57.5 26.5q-23 0 -53.5 -20t-74.5 -45t-104.5 -45.5t-140.5 -20.5q-96 0 -172 32t-131 87t-93 128t-56 155h497q29 0 56.5 19.5 t38 48t-4 48t-43.5 19.5h-565q-2 14 -2 27v28v33q0 16 2 33h627l47 137h-651q20 78 56 148.5t89 124t125 85t162 31.5q59 0 105 -11t86 -31.5t76 -52.5l77 -71l102 92q-29 57 -77 102.5t-107 76t-124 47t-126 16.5q-135 0 -241.5 -44t-185.5 -118.5t-130 -176t-76 -218.5 h-30q-29 0 -56.5 -19.5t-38 -48t3 -49t41.5 -20.5h60q-2 -20 -2 -41v-39v-41h-117z" />
<glyph unicode="&#xa5;" horiz-adv-x="1183" d="M80 1409q0 -27 14 -51l314 -516l-256 -2l-2 -99l319 2l29 -51l4 -41h-352v-100l350 2l2 -557h180l-4 557l332 2q20 0 35.5 14.5t15.5 34.5q0 23 -15.5 36t-35.5 13h-332v39l31 51l299 2q23 0 38 13.5t15 36.5t-15.5 36t-37.5 13h-234l313 514q8 12 12.5 23.5t4.5 27.5 q0 35 -25.5 57.5t-60.5 22.5q-53 0 -80 -45l-346 -574l-346 574q-12 23 -35 34t-47 11q-33 0 -58.5 -22.5t-25.5 -57.5z" />
<glyph unicode="&#xa6;" horiz-adv-x="1325" d="M23 1292q0 -47 31.5 -76.5t78.5 -29.5q43 0 74 32.5t31 75.5t-31 75t-74 32q-47 0 -78.5 -31t-31.5 -78zM47 -176q0 -25 14.5 -46.5t36.5 -31.5l219 -86q10 -4 21.5 -8t23.5 -4q14 0 27.5 5t26.5 9l213 84q23 10 36 30.5t13 45.5q0 35 -24.5 59.5t-59.5 24.5 q-18 0 -49 -11.5l-66 -25.5t-65 -29l-49 -22l-52 22l-67 29q-35 14 -67 25.5t-50 11.5q-35 0 -58.5 -23.5t-23.5 -58.5zM154 1282q0 23 22 23q23 0 23 -23t-23 -22q-22 -1 -22 22zM264 -2h172v1026q0 33 -24.5 59.5t-57.5 26.5q-39 0 -64.5 -23.5t-25.5 -62.5v-1026z M416 1292q0 -41 30.5 -73.5t73.5 -32.5q47 0 79 29.5t32 76.5t-33 78t-78 31t-74.5 -33t-29.5 -76zM530 1288q0 23 23 23t22 -23q0 -23 -22 -22q-23 -1 -23 22zM756 549q0 -16 12 -37l20 -35l175 -301q12 -23 31.5 -38t45.5 -15q27 0 49.5 21.5t22.5 50.5q0 16 -6 29.5 t-14 27.5l-179 293l181 293q16 27 16 55q0 29 -18.5 51.5t-49.5 22.5q-25 0 -46 -14.5t-33 -34.5l-183 -312q-8 -12 -16 -26.5t-8 -30.5z" />
<glyph unicode="&#xa7;" horiz-adv-x="1169" d="M63 582q0 -123 54.5 -203t136.5 -135.5t178 -94t178 -77.5t136.5 -86t54.5 -119q0 -51 -26.5 -83t-66.5 -49.5t-86.5 -23.5t-84.5 -6q-84 0 -131.5 18.5t-72 47t-32.5 60.5t-16.5 60.5t-21.5 47t-48 18.5q-45 0 -69.5 -31.5t-24.5 -72.5q0 -82 40 -140.5t101.5 -96.5 t136 -56.5t144.5 -18.5q80 0 157.5 17.5t141 57.5t102.5 104.5t39 156.5q0 74 -36 140.5t-95 107.5q51 20 97 56t80 81t53.5 98.5t19.5 110.5q0 111 -56.5 187.5t-141.5 132t-184 96.5t-184 83t-141.5 92t-56.5 122q0 47 24.5 78.5t61.5 51t80 28t82 8.5q80 0 130 -12.5 t86 -39t66 -68.5l74 -104l129 86q-49 80 -90 136.5t-90 92.5t-115.5 52t-165.5 16q-82 0 -162.5 -15t-146 -53t-106.5 -101.5t-41 -161.5q0 -72 33.5 -139.5t93.5 -108.5q-43 -25 -82 -64t-70 -85t-48.5 -97t-17.5 -102zM225 573q0 41 17.5 81t45 76t61.5 65.5t69 48.5 l319 -158q35 -16 69 -37.5t60.5 -49.5t43 -62.5t16.5 -77.5q0 -47 -23.5 -85t-59.5 -69t-78 -53.5t-81 -34.5l-264 133q-33 16 -67 38t-62.5 49.5t-47 61t-18.5 74.5z" />
<glyph unicode="&#xa8;" horiz-adv-x="489" d="M-59 1292q0 -47 32.5 -76.5t77.5 -29.5t76 32.5t31 75.5t-32 75t-75 32q-47 0 -78.5 -31t-31.5 -78zM334 1292q0 -41 30.5 -73.5t73.5 -32.5q47 0 79 29.5t32 76.5t-32 78t-79 31q-45 0 -74.5 -33t-29.5 -76z" />
<glyph unicode="&#xa9;" horiz-adv-x="1757" d="M115 739q0 -158 60.5 -297t163.5 -242.5t242.5 -164t297.5 -60.5t297 60.5t242.5 164t163.5 243t60 296.5q0 158 -60 297.5t-163.5 242.5t-243 163.5t-296.5 60.5q-158 0 -297.5 -60.5t-242.5 -163.5t-163.5 -242.5t-60.5 -297.5zM211 739q0 139 51 262t141.5 215.5 t212 146.5t263.5 54q139 0 261 -54t213 -146.5t143 -216t52 -261.5q0 -139 -52 -262t-143 -215t-213 -146.5t-261 -54.5q-141 0 -263 54.5t-212.5 146.5t-141.5 215t-51 262zM494 727q0 -92 27.5 -176t79.5 -147.5t129 -100.5t175 -37q27 0 75 5t94 20.5t80 42t34 67.5 q0 23 -14.5 39.5t-36.5 16.5q-16 0 -37 -12.5t-48.5 -25.5t-63.5 -25.5t-83 -12.5q-74 0 -127 30.5t-88 80t-52 113t-17 128.5q0 61 16 125t50 115t87 84t125 33q45 0 78 -12.5t57 -26.5l45 -27q20 -12 41 -12q20 0 34.5 16t14.5 37q0 39 -30.5 65.5t-73.5 43t-88 23.5 t-72 7q-102 0 -180 -39t-129 -104.5t-76.5 -152.5t-25.5 -181z" />
<glyph unicode="&#xaa;" horiz-adv-x="892" d="M113 1118q0 -70 20.5 -137.5t60 -121.5t98 -87t136.5 -33q61 0 117.5 29t89.5 82v-90l127 -2v676q0 25 -17.5 45t-44.5 20q-49 0 -57 -29.5t-8 -66.5q-37 47 -90 71.5t-113 24.5q-78 0 -137 -32.5t-100 -87t-61.5 -123t-20.5 -138.5zM156 565h587q18 0 33 13.5t15 31.5 q0 20 -13.5 34.5t-34.5 14.5h-585zM244 1122q0 45 11 92.5t35.5 86t62.5 62t91 23.5q55 0 92 -23.5t59.5 -60t32 -82.5t9.5 -92q0 -49 -8 -98t-29.5 -89t-60.5 -64.5t-99 -24.5q-55 0 -92 25.5t-60.5 64.5t-33.5 87t-10 93z" />
<glyph unicode="&#xab;" horiz-adv-x="833" d="M80 549q0 -10 17.5 -46t43.5 -83l59 -99l58 -98l46 -76q19 -31 22 -34l129 75l-217 357l180 293q16 27 16 55q0 29 -18.5 51.5t-48.5 22.5q-25 0 -46.5 -14.5t-33.5 -34.5l-183 -312q-8 -12 -16 -26.5t-8 -30.5zM395 549q0 -10 17.5 -46t44.5 -83l58 -99l58 -98l47 -76 q19 -31 21 -34l131 75l-219 357l182 293q16 27 17 55q0 29 -18.5 51.5t-49.5 22.5q-25 0 -46.5 -14.5t-33.5 -34.5l-184 -312q-8 -12 -16.5 -26.5t-8.5 -30.5z" />
<glyph unicode="&#xac;" horiz-adv-x="1163" d="M102 737h848v-295h111v424h-959v-129z" />
<glyph unicode="&#xad;" horiz-adv-x="737" d="M90 672l2 -160h488q33 0 55 23.5t22 56.5t-22.5 56.5t-54.5 23.5h-490z" />
<glyph unicode="&#xae;" horiz-adv-x="1757" d="M115 739q0 -158 60.5 -297t163.5 -242.5t242.5 -164t297.5 -60.5t297 60.5t242.5 164t163.5 243t60 296.5q0 158 -60 297.5t-163.5 242.5t-243 163.5t-296.5 60.5q-158 0 -297.5 -60.5t-242.5 -163.5t-163.5 -242.5t-60.5 -297.5zM211 739q0 139 51 262t141.5 215.5 t212 146.5t263.5 54q139 0 261 -54t213 -146.5t143 -216t52 -261.5q0 -139 -52 -262t-143 -215t-213 -146.5t-261 -54.5q-141 0 -263 54.5t-212.5 146.5t-141.5 215t-51 262zM616 338q0 -25 18.5 -43.5t43.5 -18.5t43 17.5t18 42.5v350l346 -387q18 -23 48 -23q23 0 41 17.5 t18 42.5q0 23 -16 39l-297 313q57 -8 111 5.5t97 45t69 79.5t26 110q0 61 -22.5 111.5t-60.5 86t-90.5 55t-111.5 19.5h-217q-27 0 -45.5 -18.5t-18.5 -44.5v-799zM739 780v307h154q31 0 60.5 -11t52 -31.5t37 -48t14.5 -60.5q0 -66 -42 -111t-108 -45h-168z" />
<glyph unicode="&#xaf;" horiz-adv-x="595" d="M0 1282q0 -35 24.5 -57.5t59.5 -22.5l430 -2q35 0 60.5 23.5t25.5 58.5t-24.5 58.5t-59.5 23.5h-434q-35 0 -58.5 -23.5t-23.5 -58.5z" />
<glyph unicode="&#xb0;" horiz-adv-x="749" d="M102 1231q0 -55 21.5 -105.5t58.5 -87.5t87 -58.5t106 -21.5q55 0 105 21.5t87 58.5t58.5 87.5t21.5 105.5q0 57 -21.5 106t-58.5 86t-86 58.5t-106 21.5q-55 0 -105.5 -21.5t-87.5 -58.5t-58.5 -87t-21.5 -105zM190 1231q0 78 53.5 131t131.5 53t131 -53t53 -131 t-53 -131t-131 -53t-131.5 53t-53.5 131z" />
<glyph unicode="&#xb1;" horiz-adv-x="1265" d="M90 39h946v139h-946v-139zM90 539h404v-250h139v250h403v139h-403v250h-139v-250h-404v-139z" />
<glyph unicode="&#xb2;" />
<glyph unicode="&#xb3;" />
<glyph unicode="&#xb4;" horiz-adv-x="458" d="M2 1257q0 -35 24.5 -57t59.5 -22q18 0 69.5 18t111.5 43l115 47l77 33l-58 154l-344 -136q-25 -10 -40 -31.5t-15 -48.5z" />
<glyph unicode="&#xb5;" horiz-adv-x="1236" d="M150 -281q0 -25 2 -50t11 -46.5t26.5 -36t48.5 -14.5q41 0 63.5 22.5t22.5 63.5q0 31 -21 82l-45 114q-25 62 -45 132.5t-20 140.5q0 16 1 32.5t1 33.5q23 -92 76 -151.5t155 -59.5q76 0 129 31.5t91 81.5t62.5 113.5t41.5 125.5q0 -53 7 -114.5t28.5 -114t62.5 -88 t110 -35.5q51 0 87 20.5t57.5 54t31 76.5t9.5 88q0 10 -1 22.5t-1 22.5h-43q0 -23 -1 -56.5t-9.5 -64t-27 -53t-50.5 -22.5q-29 0 -45.5 20.5t-23.5 49t-8 58t-1 50.5v672h-189q0 -84 2.5 -172.5t-4 -176.5t-23 -173t-52.5 -165q-14 -31 -33 -59.5t-42.5 -52t-53 -37.5 t-66.5 -14q-51 0 -77.5 23.5t-39 60t-13.5 79.5t-1 80v607h-188v-508q0 -100 3 -198.5t3 -197.5q0 -74 -4 -148.5t-4 -148.5z" />
<glyph unicode="&#xb6;" horiz-adv-x="1251" d="M102 1073q0 -84 31 -156.5t85 -127t126 -86t156 -31.5h141v-1104h113l2 1798l135 2l-2 -1802l115 2l2 1800q16 0 40.5 -1t47 2t39 14.5t16.5 37.5q0 23 -16.5 38.5t-38.5 15.5h-594q-84 0 -156 -32t-126 -86t-85 -128t-31 -156z" />
<glyph unicode="&#xb7;" horiz-adv-x="438" d="M111 537q0 -43 32.5 -75t75.5 -32q45 0 77 32t32 75q0 47 -33 77.5t-78 30.5t-75.5 -32.5t-30.5 -75.5z" />
<glyph unicode="&#x2219;" horiz-adv-x="438" d="M111 537q0 -43 32.5 -75t75.5 -32q45 0 77 32t32 75q0 47 -33 77.5t-78 30.5t-75.5 -32.5t-30.5 -75.5z" />
<glyph unicode="&#xb8;" horiz-adv-x="331" d="M37 -238q0 -29 21.5 -51t50.5 -22q20 0 38.5 12t28.5 31l156 329h-158l-113 -202q-24 -44 -24 -97z" />
<glyph unicode="&#xb9;" />
<glyph unicode="&#xba;" horiz-adv-x="874" d="M111 1122q0 -72 22.5 -141.5t64.5 -123.5t103 -87t139 -33q76 0 137.5 32t104.5 85t65.5 119.5t22.5 138.5t-21.5 141.5t-63.5 124t-102.5 88t-140.5 33.5q-78 0 -139 -31.5t-104 -84t-65.5 -121t-22.5 -140.5zM154 565h569q20 0 34.5 14.5t14.5 34.5t-14.5 34t-34.5 14 h-569v-97zM246 1120q0 43 10 90t33.5 86t59.5 63.5t87 24.5q55 0 94 -25.5t61.5 -66.5t33 -90t10.5 -96q0 -45 -11.5 -90t-36 -82t-62.5 -59.5t-89 -22.5q-53 0 -89 25.5t-58.5 64.5t-32.5 87t-10 91z" />
<glyph unicode="&#xbb;" horiz-adv-x="833" d="M51 909l228 -366l-181 -293q-16 -27 -16 -55q0 -31 18.5 -52.5t49.5 -21.5q25 0 46 14.5t33 34.5l183 309q8 12 16 26.5t8 31.5q0 10 -18.5 47t-45.5 86l-61 103l-61 100l-48 78q-19 32 -22 36zM367 909l229 -366l-180 -293q-16 -27 -17 -55q0 -31 17.5 -52.5t50.5 -21.5 q25 0 46.5 13t33.5 36l182 309q8 12 16.5 26.5t8.5 31.5q0 10 -18.5 47t-46.5 86l-60 103l-62 100l-48 78q-19 32 -21 36z" />
<glyph unicode="&#xbc;" />
<glyph unicode="&#xbd;" />
<glyph unicode="&#xbe;" />
<glyph unicode="&#xbf;" horiz-adv-x="950" d="M49 272q0 -47 22.5 -89t51.5 -77q59 -72 145 -104.5t178 -32.5q86 0 166 24.5t139.5 74t95.5 121t36 163.5q0 80 -27 147.5t-74 120t-111.5 86t-142.5 46.5v319h-170v-399q0 -31 25 -45.5t61 -24.5l80 -21q43 -11 80 -36t61.5 -70t24.5 -119q0 -102 -67.5 -160.5 t-165.5 -58.5q-72 0 -115 17.5t-68.5 43t-39.5 56.5l-24 56q-11 26 -27.5 43.5t-47.5 17.5q-41 0 -63.5 -30t-22.5 -69zM338 1403q0 -45 29.5 -78t76.5 -33q45 0 77 32t32 75q0 47 -32 76.5t-77 29.5q-41 0 -73.5 -29.5t-32.5 -72.5z" />
<glyph unicode="&#xc0;" horiz-adv-x="1265" d="M20 63q0 -35 24 -59t60 -24q29 0 51.5 17t32.5 44l105 276h680l129 -337l176 51l-514 1349q-20 53 -48 82t-89 29q-51 0 -80 -34t-45 -77l-471 -1267q-11 -27 -11 -50zM342 473l291 805l289 -805h-580zM401 1759q0 -29 15.5 -49t40.5 -31l66 -27l98 -40q51 -20 95 -35.5 t62 -15.5q35 0 58.5 21.5t23.5 55.5q0 27 -15.5 48.5t-39.5 31.5q-23 8 -68 28l-96 40q-51 20 -96 35.5t-64 15.5q-35 0 -57.5 -21.5t-22.5 -56.5z" />
<glyph unicode="&#xc1;" horiz-adv-x="1265" d="M20 63q0 -35 24 -59t60 -24q29 0 51.5 17t32.5 44l105 276h680l129 -337l176 51l-514 1349q-20 53 -48 82t-89 29q-51 0 -80 -34t-45 -77l-471 -1267q-11 -27 -11 -50zM342 473l291 805l289 -805h-580zM406 1638q0 -35 24.5 -57t58.5 -22q18 0 62.5 15t94.5 36l96 40 l67 27q25 10 40 32t15 48q0 35 -23.5 57.5t-58.5 22.5q-18 0 -62 -15.5t-95 -35.5l-98 -40l-66 -28q-25 -10 -40 -31.5t-15 -48.5z" />
<glyph unicode="&#xc2;" horiz-adv-x="1265" d="M20 63q0 -35 24 -59t60 -24q29 0 51.5 17t32.5 44l105 276h680l129 -337l176 51l-514 1349q-20 53 -48 82t-89 29q-51 0 -80 -34t-45 -77l-471 -1267q-11 -27 -11 -50zM315 1640q0 -35 23.5 -57t56.5 -22q18 0 51 11t69 25.5t67.5 29.5t50.5 22l50 -23l66 -29 q34 -14 65.5 -25t49.5 -11q35 0 60.5 24.5t25.5 59.5q0 57 -51 77l-221 82l-24 10q-13 5 -23 5t-23 -5l-22 -10l-217 -86q-54 -21 -54 -78zM342 473l291 805l289 -805h-580z" />
<glyph unicode="&#xc3;" horiz-adv-x="1265" d="M20 63q0 -35 24 -59t60 -24q29 0 51.5 17t32.5 44l105 276h680l129 -337l176 51l-514 1349q-20 53 -48 82t-89 29q-51 0 -80 -34t-45 -77l-471 -1267q-11 -27 -11 -50zM334 1663q0 -35 24.5 -58.5t59.5 -23.5h430q35 0 60.5 23.5t25.5 58.5t-24.5 58.5t-59.5 23.5h-434 q-35 0 -58.5 -23.5t-23.5 -58.5zM342 473l291 805l289 -805h-580z" />
<glyph unicode="&#xc4;" horiz-adv-x="1265" d="M20 63q0 -35 24 -59t60 -24q29 0 51.5 17t32.5 44l105 276h680l129 -337l176 51l-514 1349q-20 53 -48 82t-89 29q-51 0 -80 -34t-45 -77l-471 -1267q-11 -27 -11 -50zM285 1503q0 -45 31.5 -73.5t74.5 -28.5q41 0 72 31.5t31 72.5t-31 73t-72 32q-45 0 -75.5 -31 t-30.5 -76zM342 473l291 805l289 -805h-580zM770 1501q0 -41 30.5 -70.5t71.5 -29.5q45 0 76 27.5t31 74.5q0 43 -30.5 75t-74.5 32q-47 0 -75.5 -32t-28.5 -77z" />
<glyph unicode="&#xc5;" horiz-adv-x="1263" d="M20 63q0 -35 24 -59t60 -24q29 0 51.5 17t32.5 44l105 276h680l129 -337l176 51l-514 1349q-10 29 -26.5 57.5t-49.5 41.5q53 16 87 59t34 102q0 37 -14.5 68t-39 54.5t-56 36.5t-66.5 13q-72 0 -124 -50t-52 -122q0 -57 32.5 -101t85.5 -60q-29 -14 -46 -42t-27 -57 l-471 -1267q-11 -27 -11 -50zM342 473l291 805l289 -805h-580zM555 1642q0 33 23.5 54.5t56.5 21.5t55.5 -22.5t22.5 -55.5q0 -35 -23.5 -56t-56.5 -21t-55.5 23t-22.5 56z" />
<glyph unicode="&#xc6;" horiz-adv-x="1568" d="M-20 49l153 -69l176 335h479v-221q0 -41 26 -67.5t67 -26.5h532q33 0 57.5 23.5t24.5 58.5t-23.5 57.5t-58.5 22.5h-448v491h405q33 0 57.5 23.5t24.5 58.5q0 33 -20.5 57.5t-55.5 24.5h-407v496h430v162h-629q-45 0 -63.5 -19.5t-38.5 -58.5zM385 469l403 799v-799h-403 z" />
<glyph unicode="&#xc7;" horiz-adv-x="1220" d="M76 723q0 -137 38 -264t111.5 -227.5t183 -167t255.5 -80.5l-32 -32q-19 -19 -38 -41t-32 -43.5t-13 -39.5q0 -27 19.5 -44t45.5 -17q41 0 68 32l141 185q37 4 98.5 19t121 41t103.5 61.5t44 82.5q0 35 -22.5 61.5t-57.5 26.5q-23 0 -53.5 -20t-75.5 -45t-104.5 -45.5 t-139.5 -20.5q-123 0 -213 51.5t-148.5 135.5t-86 190.5t-27.5 214.5q0 104 26.5 210t82 191t141.5 138t207 53q59 0 105 -11t86 -31.5t76 -52.5l77 -71l102 92q-29 57 -77 102.5t-107 76t-123.5 47t-126.5 16.5q-166 0 -289 -64.5t-203.5 -172t-121.5 -247.5t-41 -290z" />
<glyph unicode="&#xc8;" horiz-adv-x="915" d="M131 96q0 -41 23.5 -68.5t66.5 -27.5h662v162h-572v493h406q35 0 58.5 23.5t23.5 58.5t-24.5 57.5t-59.5 22.5h-404v496h426q35 0 59.5 23.5t24.5 58.5q0 33 -24.5 56.5t-57.5 23.5h-516h-45q-23 0 -45 4zM225 1759q0 -29 15.5 -49t40.5 -31l66 -27l97 -40 q51 -20 95.5 -35.5t62.5 -15.5q35 0 58.5 21.5t23.5 55.5q0 27 -15.5 48.5t-39.5 31.5q-23 8 -68 28l-96 40q-51 20 -96 35.5t-64 15.5q-35 0 -57.5 -21.5t-22.5 -56.5z" />
<glyph unicode="&#xc9;" horiz-adv-x="915" d="M131 96q0 -41 23.5 -68.5t66.5 -27.5h662v162h-572v493h406q35 0 58.5 23.5t23.5 58.5t-24.5 57.5t-59.5 22.5h-404v496h426q35 0 59.5 23.5t24.5 58.5q0 33 -24.5 56.5t-57.5 23.5h-516h-45q-23 0 -45 4zM229 1638q0 -35 25 -57t59 -22q18 0 62.5 15t94.5 36l96 40 l67 27q25 10 40 32t15 48q0 35 -23.5 57.5t-58.5 22.5q-18 0 -62 -15.5t-95 -35.5l-98 -40l-66 -28q-25 -10 -40.5 -31.5t-15.5 -48.5z" />
<glyph unicode="&#xca;" horiz-adv-x="915" d="M131 96q0 -41 23.5 -68.5t66.5 -27.5h539q33 0 57.5 23.5t24.5 56.5q0 35 -24.5 58.5t-59.5 23.5h-447v493h406q35 0 58.5 23.5t23.5 58.5t-24.5 57.5t-59.5 22.5h-404v496h426q35 0 59.5 23.5t24.5 58.5q0 33 -24.5 56.5t-57.5 23.5h-516q-39 0 -65.5 -27t-26.5 -66 v-1286zM139 1640q0 -35 23.5 -57t56.5 -22q18 0 51 11t69 25.5t67.5 29.5t50.5 22l50 -23l65 -29q34 -14 66 -25t50 -11q35 0 60.5 24.5t25.5 59.5q0 57 -51 77l-221 82l-24 10q-13 5 -23 5t-23 -5l-22 -10l-217 -86q-54 -21 -54 -78z" />
<glyph unicode="&#xcb;" horiz-adv-x="915" d="M131 96q0 -41 23.5 -68.5t66.5 -27.5h662v162h-572v493h406q35 0 58.5 23.5t23.5 58.5t-24.5 57.5t-59.5 22.5h-404v496h426q35 0 59.5 23.5t24.5 58.5q0 33 -24.5 56.5t-57.5 23.5h-516h-45q-23 0 -45 4zM154 1673q0 -47 32.5 -76.5t77.5 -29.5t76 32.5t31 75.5t-32 75 t-75 32q-47 0 -78.5 -31t-31.5 -78zM547 1673q0 -41 30.5 -73.5t73.5 -32.5q47 0 79 29.5t32 76.5t-32 78t-79 31q-45 0 -74.5 -33t-29.5 -76z" />
<glyph unicode="&#xcc;" horiz-adv-x="438" d="M-12 1759q0 -29 15 -49t40 -31l67 -27l97 -40q51 -20 95 -35.5t63 -15.5q35 0 58 21.5t23 55.5q0 27 -15 48.5t-40 31.5q-23 8 -67 28l-97 40q-51 20 -96 35.5t-63 15.5q-35 0 -57.5 -21.5t-22.5 -56.5zM131 0h176v1401q0 37 -24.5 63.5t-61.5 26.5t-63.5 -26.5 t-26.5 -63.5v-1401z" />
<glyph unicode="&#xcd;" horiz-adv-x="438" d="M-8 1638q0 -35 24.5 -57t59.5 -22q18 0 62 15t94 36l97 40l66 27q25 10 40.5 32t15.5 48q0 35 -24 57.5t-58 22.5q-18 0 -62.5 -15.5t-95.5 -35.5l-97 -40l-67 -28q-25 -10 -40 -31.5t-15 -48.5zM131 0h176v1401q0 37 -24.5 63.5t-61.5 26.5t-63.5 -26.5t-26.5 -63.5 v-1401z" />
<glyph unicode="&#xce;" horiz-adv-x="438" d="M-98 1640q0 -35 23.5 -57t56.5 -22q18 0 51 11t68.5 25.5t67.5 29.5t50 22l50 -23l66 -29q34 -14 65.5 -25t50.5 -11q35 0 60.5 24.5t25.5 59.5q0 57 -52 77l-221 82l-23 10q-13 5 -24 5q-10 0 -22 -5l-23 -10l-217 -86q-53 -21 -53 -78zM131 0h176v1401q0 37 -24.5 63.5 t-61.5 26.5t-63.5 -26.5t-26.5 -63.5v-1401z" />
<glyph unicode="&#xcf;" horiz-adv-x="438" d="M-84 1673q0 -47 33 -76.5t78 -29.5t75.5 32.5t30.5 75.5t-31.5 75t-74.5 32q-47 0 -79 -31t-32 -78zM131 0h176v1401q0 37 -24.5 63.5t-61.5 26.5t-63.5 -26.5t-26.5 -63.5v-1401zM309 1673q0 -41 31 -73.5t74 -32.5q47 0 78.5 29.5t31.5 76.5t-31.5 78t-78.5 31 q-45 0 -75 -33t-30 -76z" />
<glyph unicode="&#xd0;" />
<glyph unicode="&#xd1;" horiz-adv-x="1392" d="M131 2l176 -2v1171l793 -1153q27 -39 74 -38q37 0 62.5 25.5t25.5 62.5v1333q0 37 -26 64.5t-65 27.5q-35 0 -60.5 -28.5t-25.5 -63.5l2 -1098l-792 1151q-27 39 -74 39q-37 0 -63.5 -26.5t-26.5 -63.5v-1401zM397 1663q0 -35 24.5 -57.5t59.5 -22.5l430 -2 q35 0 60.5 23.5t25.5 58.5t-24.5 58.5t-59.5 23.5h-434q-35 0 -58.5 -23.5t-23.5 -58.5z" />
<glyph unicode="&#xd2;" horiz-adv-x="1437" d="M76 739q0 -145 41 -281t121.5 -241.5t201.5 -170t279 -64.5t277.5 63.5t201.5 170t123 241.5t41 280q0 143 -41 279.5t-122 242t-200.5 170t-277.5 64.5t-278.5 -63.5t-202.5 -168t-123 -241t-41 -281.5zM270 737q0 102 23.5 209t76 194t137.5 142t206 55q129 0 216 -55 t141 -143t76.5 -199t22.5 -221q0 -106 -25.5 -211t-80.5 -187.5t-141 -134t-209 -51.5q-121 0 -206 55.5t-137.5 142.5t-76 194.5t-23.5 209.5zM487 1759q0 -29 15.5 -49t40.5 -31l66 -27l98 -40q51 -20 95 -35.5t62 -15.5q35 0 58.5 21.5t23.5 55.5q0 27 -15.5 48.5 t-39.5 31.5q-23 8 -68 28l-96 40q-51 20 -96 35.5t-64 15.5q-35 0 -57.5 -21.5t-22.5 -56.5z" />
<glyph unicode="&#xd3;" horiz-adv-x="1437" d="M76 739q0 -145 41 -281t121.5 -241.5t201.5 -170t279 -64.5t277.5 63.5t201.5 170t123 241.5t41 280q0 143 -41 279.5t-122 242t-200.5 170t-277.5 64.5t-278.5 -63.5t-202.5 -168t-123 -241t-41 -281.5zM270 737q0 102 23.5 209t76 194t137.5 142t206 55q129 0 216 -55 t141 -143t76.5 -199t22.5 -221q0 -106 -25.5 -211t-80.5 -187.5t-141 -134t-209 -51.5q-121 0 -206 55.5t-137.5 142.5t-76 194.5t-23.5 209.5zM492 1638q0 -35 24.5 -57t58.5 -22q18 0 62.5 15t94.5 36l96 40l67 27q25 10 40 32t15 48q0 35 -23.5 57.5t-58.5 22.5 q-18 0 -62 -15.5t-95 -35.5l-98 -40l-66 -28q-25 -10 -40 -31.5t-15 -48.5z" />
<glyph unicode="&#xd4;" horiz-adv-x="1437" d="M76 739q0 -145 41 -281t121.5 -241.5t201.5 -170t279 -64.5t277.5 63.5t201.5 170t123 241.5t41 280q0 143 -41 279.5t-122 242t-200.5 170t-277.5 64.5t-278.5 -63.5t-202.5 -168t-123 -241t-41 -281.5zM270 737q0 102 23.5 209t76 194t137.5 142t206 55q129 0 216 -55 t141 -143t76.5 -199t22.5 -221q0 -106 -25.5 -211t-80.5 -187.5t-141 -134t-209 -51.5q-121 0 -206 55.5t-137.5 142.5t-76 194.5t-23.5 209.5zM401 1640q0 -35 24 -57t56 -22q18 0 51 11t69 25.5t67.5 29.5t50.5 22l50 -23l66 -29q34 -14 65.5 -25t49.5 -11q35 0 60.5 24.5 t25.5 59.5q0 57 -51 77l-221 82l-24 10q-13 5 -23 5t-23 -5l-22 -10l-217 -86q-54 -21 -54 -78z" />
<glyph unicode="&#xd5;" horiz-adv-x="1437" d="M76 739q0 -145 41 -281t121.5 -241.5t201.5 -170t279 -64.5t277.5 63.5t201.5 170t123 241.5t41 280q0 143 -41 279.5t-122 242t-200.5 170t-277.5 64.5t-278.5 -63.5t-202.5 -168t-123 -241t-41 -281.5zM270 737q0 102 23.5 209t76 194t137.5 142t206 55q129 0 216 -55 t141 -143t76.5 -199t22.5 -221q0 -106 -25.5 -211t-80.5 -187.5t-141 -134t-209 -51.5q-121 0 -206 55.5t-137.5 142.5t-76 194.5t-23.5 209.5zM420 1663q0 -35 24.5 -57.5t59.5 -22.5l430 -2q35 0 60.5 23.5t25.5 58.5t-24.5 58.5t-59.5 23.5h-434q-35 0 -58.5 -23.5 t-23.5 -58.5z" />
<glyph unicode="&#xd6;" horiz-adv-x="1437" d="M76 739q0 -145 41 -281t121.5 -241.5t201.5 -170t279 -64.5t277.5 63.5t201.5 170t123 241.5t41 280q0 143 -41 279.5t-122 242t-200.5 170t-277.5 64.5t-278.5 -63.5t-202.5 -168t-123 -241t-41 -281.5zM133 1518q0 -43 27.5 -75t72.5 -32q43 0 74 31t31 71q0 43 -31 74 t-71 31q-43 0 -73 -29.5t-30 -70.5zM270 737q0 102 23.5 209t76 194t137.5 142t206 55q129 0 216 -55t141 -143t76.5 -199t22.5 -221q0 -106 -25.5 -211t-80.5 -187.5t-141 -134t-209 -51.5q-121 0 -206 55.5t-137.5 142.5t-76 194.5t-23.5 209.5zM1100 1511 q0 -41 31.5 -70.5t72.5 -29.5q43 0 73 32t30 75q0 41 -30 71.5t-73 30.5q-47 0 -75.5 -32t-28.5 -77z" />
<glyph unicode="&#xd7;" />
<glyph unicode="&#xd8;" horiz-adv-x="1439" d="M51 27l86 -82l168 202q80 -84 185.5 -125.5t222.5 -41.5q156 0 277.5 63t203.5 167.5t125 240t43 280.5q0 135 -32 260t-103 240l38.5 43l53.5 61.5t47 62t20 48.5q0 25 -16 42t-41 17q-18 0 -43.5 -23.5t-52.5 -54t-50.5 -61.5t-35.5 -45q-88 86 -199.5 130t-234.5 44 q-158 0 -277 -64.5t-198.5 -171t-120.5 -242.5t-41 -280q0 -139 33.5 -262t115.5 -237zM268 729q0 102 23.5 210t76 195t136.5 143t207 56q92 0 177 -35.5t146 -107.5l-686 -811q-45 86 -62.5 170t-17.5 180zM416 274l686 813q37 -90 52 -180t15 -188q0 -102 -24.5 -205.5 t-77.5 -185.5t-137 -133.5t-203 -51.5q-90 0 -170 32.5t-141 98.5z" />
<glyph unicode="&#xd9;" horiz-adv-x="1398" d="M131 522q0 -125 43 -225t120 -171t180.5 -108.5t225.5 -37.5q121 0 225.5 37.5t180.5 108.5t119 171t43 225v877q0 37 -27 63.5t-61 26.5q-39 0 -63.5 -26.5t-24.5 -63.5v-879q0 -88 -29 -159.5t-80 -122t-124 -78t-159 -27.5q-88 0 -160.5 27.5t-123.5 78t-80 122 t-29 159.5v961h-176v-959zM467 1759q0 -29 15.5 -49t39.5 -31l67 -27l97 -40q51 -20 95 -35.5t63 -15.5q35 0 58.5 21.5t23.5 55.5q0 27 -15.5 48.5t-40.5 31.5q-23 8 -67 28l-96 40q-51 20 -96.5 35.5t-63.5 15.5q-35 0 -57.5 -21.5t-22.5 -56.5z" />
<glyph unicode="&#xda;" horiz-adv-x="1398" d="M131 522q0 -125 43 -225t120 -171t180.5 -108.5t225.5 -37.5q121 0 225.5 37.5t180.5 108.5t119 171t43 225v877q0 37 -27 63.5t-61 26.5q-39 0 -63.5 -26.5t-24.5 -63.5v-879q0 -88 -29 -159.5t-80 -122t-124 -78t-159 -27.5q-88 0 -160.5 27.5t-123.5 78t-80 122 t-29 159.5v961h-176v-959zM471 1638q0 -35 24.5 -57t59.5 -22q18 0 62.5 15t94.5 36l96 40l66 27q25 10 40.5 32t15.5 48q0 35 -23.5 57.5t-58.5 22.5q-18 0 -62.5 -15.5t-95.5 -35.5l-97 -40l-67 -28q-25 -10 -40 -31.5t-15 -48.5z" />
<glyph unicode="&#xdb;" horiz-adv-x="1398" d="M131 522q0 -125 43 -225t120 -171t180.5 -108.5t225.5 -37.5q121 0 225.5 37.5t180.5 108.5t119 171t43 225v877q0 37 -27 63.5t-61 26.5q-39 0 -63.5 -26.5t-24.5 -63.5v-879q0 -88 -29 -159.5t-80 -122t-124 -78t-159 -27.5q-88 0 -160.5 27.5t-123.5 78t-80 122 t-29 159.5v961h-176v-959zM381 1640q0 -35 23.5 -57t56.5 -22q18 0 51 11t68.5 25.5t67.5 29.5t50 22l51 -23l65 -29q34 -14 65.5 -25t50.5 -11q35 0 60.5 24.5t25.5 59.5q0 57 -51 77l-222 82l-23 10q-13 5 -24 5q-10 0 -22 -5l-23 -10l-217 -86q-53 -21 -53 -78z" />
<glyph unicode="&#xdc;" horiz-adv-x="1398" d="M131 522q0 -125 43 -225t120 -171t180.5 -108.5t225.5 -37.5q121 0 225.5 37.5t180.5 108.5t119 171t43 225v877q0 37 -27 63.5t-61 26.5q-39 0 -63.5 -26.5t-24.5 -63.5v-879q0 -88 -29 -159.5t-80 -122t-124 -78t-159 -27.5q-88 0 -160.5 27.5t-123.5 78t-80 122 t-29 159.5v961h-176v-959zM432 1507q0 -45 27.5 -75.5t75.5 -30.5q43 0 73.5 30.5t30.5 75.5q0 41 -29.5 73t-72.5 32t-74 -31t-31 -74zM760 1505q0 -41 30.5 -72.5t71.5 -31.5q43 0 74 30.5t31 73.5t-31 74t-74 31q-45 0 -73.5 -31t-28.5 -74z" />
<glyph unicode="&#xdd;" />
<glyph unicode="&#xde;" />
<glyph unicode="&#xdf;" horiz-adv-x="1144" d="M131 -434h172v1591q0 57 14.5 107.5t43 88.5t74.5 59.5t108 21.5q55 0 96 -24t68.5 -61.5t42 -86t14.5 -97.5q0 -104 -44 -161.5t-147 -83.5q-23 -20 -35 -29.5t-12 -44.5t26 -49.5t63.5 -23.5t82.5 -22.5t83 -45t63.5 -89t25.5 -157.5q0 -109 -24.5 -167.5t-62.5 -87 t-81 -37.5l-80.5 -16.5t-62 -22.5t-24.5 -56q0 -25 12 -43.5t32.5 -28.5t43 -15t45.5 -5q94 0 165.5 43t121 112.5t75 154.5t25.5 169q0 68 -17.5 132t-51.5 119.5t-85 97.5t-119 62q78 49 117 133t39 177q0 86 -27.5 160.5t-79 131t-124 88t-160.5 31.5q-104 0 -183 -33.5 t-130.5 -95t-77 -145.5t-25.5 -184v-1567z" />
<glyph unicode="&#xe0;" horiz-adv-x="1161" d="M74 549q0 -106 30.5 -207.5t90 -181.5t148.5 -129t206 -49q96 0 177 42t130 126v-158h174v1032q0 33 -23.5 59.5t-58.5 26.5q-37 0 -55.5 -13.5t-25.5 -34t-8 -46t-1 -51.5q-57 72 -138 108.5t-171 36.5q-115 0 -203 -49t-148.5 -128t-92 -179.5t-31.5 -204.5zM258 551 q0 72 17.5 144.5t54.5 132t96 96.5t143 37q86 0 142.5 -36t90.5 -92.5t47 -128t13 -141.5q0 -78 -12 -154.5t-46 -138t-93.5 -100.5t-151.5 -39q-84 0 -142.5 39t-93 99.5t-50 135t-15.5 146.5zM348 1378q0 -29 15.5 -49t39.5 -31l67 -27l97 -40q51 -20 95.5 -35.5 t62.5 -15.5q35 0 58.5 21.5t23.5 55.5q0 27 -15.5 48.5t-39.5 31.5q-23 8 -68 28l-96 40q-51 20 -96.5 35.5t-63.5 15.5q-35 0 -57.5 -21.5t-22.5 -56.5z" />
<glyph unicode="&#xe1;" horiz-adv-x="1161" d="M74 549q0 -106 30.5 -207.5t90 -181.5t148.5 -129t206 -49q96 0 177 42t130 126v-158h174v1032q0 33 -23.5 59.5t-58.5 26.5q-37 0 -55.5 -13.5t-25.5 -34t-8 -46t-1 -51.5q-57 72 -138 108.5t-171 36.5q-115 0 -203 -49t-148.5 -128t-92 -179.5t-31.5 -204.5zM258 551 q0 72 17.5 144.5t54.5 132t96 96.5t143 37q86 0 142.5 -36t90.5 -92.5t47 -128t13 -141.5q0 -78 -12 -154.5t-46 -138t-93.5 -100.5t-151.5 -39q-84 0 -142.5 39t-93 99.5t-50 135t-15.5 146.5zM352 1257q0 -35 24.5 -57t59.5 -22q18 0 62.5 15t94.5 36l96 40l67 27 q25 10 40 32t15 48q0 35 -23.5 57.5t-58.5 22.5q-18 0 -62 -15.5l-96 -35.5l-97 -40l-66 -28q-25 -10 -40.5 -31.5t-15.5 -48.5z" />
<glyph unicode="&#xe2;" horiz-adv-x="1161" d="M74 549q0 -106 30.5 -207.5t90 -181.5t148.5 -129t206 -49q96 0 177 42t130 126v-158h174v1032q0 33 -23.5 59.5t-58.5 26.5q-37 0 -55.5 -13.5t-25.5 -34t-8 -46t-1 -51.5q-57 72 -138 108.5t-171 36.5q-115 0 -203 -49t-148.5 -128t-92 -179.5t-31.5 -204.5zM258 551 q0 72 17.5 144.5t54.5 132t96 96.5t143 37q86 0 142.5 -36t90.5 -92.5t47 -128t13 -141.5q0 -78 -12 -154.5t-46 -138t-93.5 -100.5t-151.5 -39q-84 0 -142.5 39t-93 99.5t-50 135t-15.5 146.5zM262 1260q0 -35 23.5 -57.5t56.5 -22.5q18 0 51 11t69 25.5t67.5 30t50.5 21.5 l50 -23l65 -28q34 -14 66 -25.5t50 -11.5q35 0 60.5 24.5t25.5 59.5q0 57 -51 77l-221 82l-24 10q-13 5 -23 5t-23 -5l-23 -10l-217 -86q-53 -20 -53 -77z" />
<glyph unicode="&#xe3;" horiz-adv-x="1161" d="M74 549q0 -106 30.5 -207.5t90 -181.5t148.5 -129t206 -49q96 0 177 42t130 126v-158h174v1032q0 33 -23.5 59.5t-58.5 26.5q-37 0 -55.5 -13.5t-25.5 -34t-8 -46t-1 -51.5q-57 72 -138 108.5t-171 36.5q-115 0 -203 -49t-148.5 -128t-92 -179.5t-31.5 -204.5zM258 551 q0 72 17.5 144.5t54.5 132t96 96.5t143 37q86 0 142.5 -36t90.5 -92.5t47 -128t13 -141.5q0 -78 -12 -154.5t-46 -138t-93.5 -100.5t-151.5 -39q-84 0 -142.5 39t-93 99.5t-50 135t-15.5 146.5zM281 1282q0 -35 24.5 -57.5t59.5 -22.5l430 -2q35 0 60.5 23.5t25.5 58.5 t-25 58.5t-59 23.5h-435q-35 0 -58 -23.5t-23 -58.5z" />
<glyph unicode="&#xe4;" horiz-adv-x="1161" d="M74 549q0 -106 30.5 -207.5t90 -181.5t148.5 -129t206 -49q96 0 177 42t130 126v-158h174v1032q0 33 -23.5 59.5t-58.5 26.5q-37 0 -55.5 -13.5t-25.5 -34t-8 -46t-1 -51.5q-57 72 -138 108.5t-171 36.5q-115 0 -203 -49t-148.5 -128t-92 -179.5t-31.5 -204.5zM258 551 q0 72 17.5 144.5t54.5 132t96 96.5t143 37q86 0 142.5 -36t90.5 -92.5t47 -128t13 -141.5q0 -78 -12 -154.5t-46 -138t-93.5 -100.5t-151.5 -39q-84 0 -142.5 39t-93 99.5t-50 135t-15.5 146.5zM289 1339q0 -47 30.5 -79.5t77.5 -32.5t78 31.5t31 76.5t-31 78t-78 33 q-43 0 -75.5 -31t-32.5 -76zM678 1337q0 -47 30.5 -78.5t77.5 -31.5t78 31.5t31 76.5q0 47 -32 79t-77 32t-76.5 -32t-31.5 -77z" />
<glyph unicode="&#xe5;" horiz-adv-x="1161" d="M74 549q0 -106 30.5 -207.5t90 -181.5t148.5 -129t206 -49q96 0 177 42t130 126v-158h174v1032q0 33 -23.5 59.5t-58.5 26.5q-37 0 -55.5 -13.5t-25.5 -34t-8 -46t-1 -51.5q-57 72 -138 108.5t-171 36.5q-115 0 -203 -49t-148.5 -128t-92 -179.5t-31.5 -204.5zM258 551 q0 72 17.5 144.5t54.5 132t96 96.5t143 37q86 0 142.5 -36t90.5 -92.5t47 -128t13 -141.5q0 -78 -12 -154.5t-46 -138t-93.5 -100.5t-151.5 -39q-84 0 -142.5 39t-93 99.5t-50 135t-15.5 146.5zM401 1354q0 -33 13.5 -61.5t36 -50t52 -34t62.5 -12.5t63.5 11.5t54.5 33 t38 51t14 64.5q0 33 -13 62.5t-36.5 51t-53.5 34t-63 12.5q-70 0 -119 -45t-49 -117zM494 1356q0 33 21.5 52t51.5 19q31 0 53.5 -20.5t22.5 -52.5q0 -29 -22.5 -51.5t-53.5 -22.5t-52 23.5t-21 52.5z" />
<glyph unicode="&#xe6;" horiz-adv-x="1853" d="M76 535q0 -104 30.5 -203t91 -176.5t147.5 -124.5t200 -47q94 0 180 43t133 129v-158h160v135q61 -80 147 -114.5t187 -34.5q45 0 75.5 5t57 13t54.5 19.5t69 23.5l-54 145q-45 -23 -94 -37t-100 -14q-72 0 -133.5 27t-106.5 74t-70.5 109.5t-25.5 133.5h666 q14 0 27.5 -1t27.5 -1q35 12 42 37t7 57q0 94 -32.5 189.5t-92 171.5t-143.5 124t-187 48q-92 0 -179 -41t-144 -113q0 25 1 52.5t-5 51t-22.5 39t-51.5 15.5t-52.5 -15.5t-23.5 -39t-6 -51.5v-52q-53 76 -137 114t-174 38q-117 0 -205 -50t-146.5 -131t-88 -183.5 t-29.5 -206.5zM256 543q0 68 16.5 139.5t52 129.5t91 96t135.5 38q84 0 142.5 -32.5t95 -88t53 -125t16.5 -143.5q0 -70 -14.5 -142.5t-48 -132t-90 -97.5t-138.5 -38q-84 0 -143 35t-96 90.5t-54.5 126t-17.5 144.5zM1024 612v41q0 61 24.5 115.5t65.5 96.5t95.5 65.5 t115.5 23.5q74 0 125 -30.5t85 -78.5t53.5 -109.5t29.5 -123.5h-594z" />
<glyph unicode="&#xe7;" horiz-adv-x="919" d="M76 543q0 -96 24.5 -187.5t74.5 -167t126 -128t176 -68.5l-28 -41l-41 -60l-37 -59.5t-17 -42.5q0 -27 18.5 -45t45.5 -18q18 0 38.5 9t30.5 25l144 228q29 2 68.5 10t75.5 24.5t61.5 42t25.5 64.5q0 31 -23.5 54.5t-56.5 23.5q-18 0 -43 -10l-53 -22l-59.5 -21.5 t-61.5 -10.5q-78 0 -134 39t-94 98.5t-56.5 132t-18.5 138.5q0 72 18.5 143.5t56.5 128t97.5 92t143.5 35.5q63 0 121.5 -26.5t111.5 -55.5l84 144l-78 41q-37 18 -73.5 30.5t-76.5 19.5t-89 7q-121 0 -214.5 -46t-158 -125t-97 -181t-32.5 -215z" />
<glyph unicode="&#xe8;" horiz-adv-x="1101" d="M76 549q0 -115 33.5 -218.5t99 -181t160 -123.5t217.5 -46q76 0 138 17t132 46l-39 137q-53 -16 -110.5 -29.5t-114.5 -13.5q-70 0 -129.5 28t-102.5 74t-67.5 108.5t-24.5 129.5h664q55 0 81.5 18.5t26.5 77.5q0 100 -32.5 196.5t-93 171.5t-147.5 121t-196 46 q-115 0 -206 -47t-155.5 -125t-99 -179.5t-34.5 -207.5zM264 612q8 63 28.5 127t55.5 113t88 80t131 31q68 0 121 -32t90 -82t57.5 -112.5t22.5 -124.5h-594zM319 1378q0 -29 15.5 -49t40.5 -31l66 -27l98 -40q51 -20 95 -35.5t62 -15.5q35 0 58.5 21.5t23.5 55.5 q0 27 -15 48.5t-40 31.5q-23 8 -68 28l-96 40q-51 20 -96 35.5t-64 15.5q-35 0 -57.5 -21.5t-22.5 -56.5z" />
<glyph unicode="&#xe9;" horiz-adv-x="1101" d="M76 549q0 -115 33.5 -218.5t99 -181t160 -123.5t217.5 -46q76 0 138 17t132 46l-39 137q-53 -16 -110.5 -29.5t-114.5 -13.5q-70 0 -129.5 28t-102.5 74t-67.5 108.5t-24.5 129.5h664q55 0 81.5 18.5t26.5 77.5q0 100 -32.5 196.5t-93 171.5t-147.5 121t-196 46 q-115 0 -206 -47t-155.5 -125t-99 -179.5t-34.5 -207.5zM264 612q8 63 28.5 127t55.5 113t88 80t131 31q68 0 121 -32t90 -82t57.5 -112.5t22.5 -124.5h-594zM324 1257q0 -35 24.5 -57t59.5 -22q18 0 62 15t94 36l96 40l67 27q25 10 40 32t15 48q0 35 -23.5 57.5t-58.5 22.5 q-18 0 -62 -15.5t-95 -35.5l-98 -40l-66 -28q-25 -10 -40 -31.5t-15 -48.5z" />
<glyph unicode="&#xea;" horiz-adv-x="1101" d="M76 549q0 -115 33.5 -218.5t99 -181t160 -123.5t217.5 -46q76 0 138 17t132 46l-39 137q-53 -16 -110.5 -29.5t-114.5 -13.5q-70 0 -129.5 28t-102.5 74t-67.5 108.5t-24.5 129.5h664q55 0 81.5 18.5t26.5 77.5q0 100 -32.5 196.5t-93 171.5t-147.5 121t-196 46 q-115 0 -206 -47t-155.5 -125t-99 -179.5t-34.5 -207.5zM233 1260q0 -35 24 -57.5t56 -22.5q18 0 51 11t69 25.5t67.5 30t50.5 21.5l50 -23l66 -28q34 -14 65.5 -25.5t49.5 -11.5q35 0 60.5 24.5t25.5 59.5q0 57 -51 77l-221 82l-24 10q-13 5 -23 5t-23 -5l-22 -10l-217 -86 q-54 -20 -54 -77zM264 612q8 63 28.5 127t55.5 113t88 80t131 31q68 0 121 -32t90 -82t57.5 -112.5t22.5 -124.5h-594z" />
<glyph unicode="&#xeb;" horiz-adv-x="1101" d="M76 549q0 -115 33.5 -218.5t99 -181t160 -123.5t217.5 -46q76 0 138 17t132 46l-39 137q-53 -16 -110.5 -29.5t-114.5 -13.5q-70 0 -129.5 28t-102.5 74t-67.5 108.5t-24.5 129.5h664q55 0 81.5 18.5t26.5 77.5q0 100 -32.5 196.5t-93 171.5t-147.5 121t-196 46 q-115 0 -206 -47t-155.5 -125t-99 -179.5t-34.5 -207.5zM248 1292q0 -47 32.5 -76.5t77.5 -29.5t76 32.5t31 75.5t-32 75t-75 32q-47 0 -78.5 -31t-31.5 -78zM264 612q8 63 28.5 127t55.5 113t88 80t131 31q68 0 121 -32t90 -82t57.5 -112.5t22.5 -124.5h-594zM641 1292 q0 -41 30.5 -73.5t73.5 -32.5q47 0 79 29.5t32 76.5t-31.5 78t-79.5 31q-45 0 -74.5 -33t-29.5 -76z" />
<glyph unicode="&#xec;" horiz-adv-x="389" d="M-37 1378q0 -29 15.5 -49t39.5 -31l67 -27l97 -40q51 -20 95.5 -35.5t62.5 -15.5q35 0 58.5 21.5t23.5 55.5q0 27 -15.5 48.5t-39.5 31.5q-23 8 -68 28l-96 40q-51 20 -96.5 35.5t-63.5 15.5q-35 0 -57.5 -21.5t-22.5 -56.5zM133 -2h172v1026q0 33 -23.5 59.5t-58.5 26.5 q-37 0 -63.5 -23.5t-26.5 -62.5v-1026z" />
<glyph unicode="&#xed;" horiz-adv-x="389" d="M-33 1257q0 -35 24.5 -57t59.5 -22q18 0 62.5 15t94.5 36l96 40l67 27q25 10 40 32t15 48q0 35 -23.5 57.5t-58.5 22.5q-18 0 -62 -15.5l-96 -35.5l-97 -40l-66 -28q-25 -10 -40.5 -31.5t-15.5 -48.5zM133 -2h172v1026q0 33 -23.5 59.5t-58.5 26.5q-37 0 -63.5 -23.5 t-26.5 -62.5v-1026z" />
<glyph unicode="&#xee;" horiz-adv-x="389" d="M-123 1260q0 -35 23.5 -57.5t56.5 -22.5q18 0 51 11t69 25.5t67.5 30t50.5 21.5l50 -23l65 -28q34 -14 66 -25.5t50 -11.5q35 0 60.5 24.5t25.5 59.5q0 57 -51 77l-221 82l-24 10q-13 5 -23 5t-23 -5l-23 -10l-217 -86q-53 -20 -53 -77zM133 -2h172v1026q0 33 -23.5 59.5 t-58.5 26.5q-37 0 -63.5 -23.5t-26.5 -62.5v-1026z" />
<glyph unicode="&#xef;" horiz-adv-x="389" d="M-109 1292q0 -47 33 -76.5t78 -29.5t76 32.5t31 75.5t-32 75t-75 32q-47 0 -79 -31t-32 -78zM133 -2h172v1026q0 33 -23.5 59.5t-58.5 26.5q-37 0 -63.5 -23.5t-26.5 -62.5v-1026zM285 1292q0 -41 30.5 -73.5t73.5 -32.5q47 0 79 29.5t32 76.5t-32 78t-79 31 q-45 0 -74.5 -33t-29.5 -76z" />
<glyph unicode="&#xf0;" />
<glyph unicode="&#xf1;" horiz-adv-x="1122" d="M131 -2h172v698q0 53 19.5 100.5t54.5 83t82 56t100 20.5t100.5 -21.5t83 -57t56 -84t20.5 -101.5v-629q0 -35 24.5 -60.5t59.5 -25.5q37 0 62.5 26t25.5 63v628q0 90 -27.5 166t-80 131.5t-126 86t-165.5 30.5q-84 0 -163 -37t-126 -106v49q0 27 -7 48t-24.5 35.5 t-50.5 14.5q-37 0 -63.5 -25.5t-26.5 -62.5v-1026zM262 1282q0 -35 24.5 -57.5t59.5 -22.5l430 -2q35 0 60.5 23.5t25.5 58.5t-24.5 58.5t-59.5 23.5h-434q-35 0 -58.5 -23.5t-23.5 -58.5z" />
<glyph unicode="&#xf2;" horiz-adv-x="1120" d="M76 549q0 -106 31.5 -208.5t94 -183.5t152.5 -130.5t207 -49.5q115 0 205 49.5t151.5 130.5t93 183t31.5 207q0 106 -32.5 207.5t-94 180.5t-151.5 127t-205 48t-205 -48t-151.5 -127t-94 -180.5t-32.5 -205.5zM260 547q0 68 16.5 139.5t52.5 132t92 99t136 38.5 q82 0 139.5 -37.5t94 -96t53 -131.5t16.5 -142q0 -72 -16.5 -145.5t-52 -134t-94 -98.5t-142.5 -38q-80 0 -136.5 39t-91 100.5t-51 134t-16.5 140.5zM328 1378q0 -29 15 -49t40 -31l67 -27l97 -40q51 -20 95 -35.5t63 -15.5q35 0 58 21.5t23 55.5q0 27 -15 48.5t-40 31.5 q-23 8 -67 28l-97 40q-51 20 -96 35.5t-63 15.5q-35 0 -57.5 -21.5t-22.5 -56.5z" />
<glyph unicode="&#xf3;" horiz-adv-x="1120" d="M76 549q0 -106 31.5 -208.5t94 -183.5t152.5 -130.5t207 -49.5q115 0 205 49.5t151.5 130.5t93 183t31.5 207q0 106 -32.5 207.5t-94 180.5t-151.5 127t-205 48t-205 -48t-151.5 -127t-94 -180.5t-32.5 -205.5zM260 547q0 68 16.5 139.5t52.5 132t92 99t136 38.5 q82 0 139.5 -37.5t94 -96t53 -131.5t16.5 -142q0 -72 -16.5 -145.5t-52 -134t-94 -98.5t-142.5 -38q-80 0 -136.5 39t-91 100.5t-51 134t-16.5 140.5zM332 1257q0 -35 24.5 -57t59.5 -22q18 0 62 15t94 36l97 40l66 27q25 10 40.5 32t15.5 48q0 35 -24 57.5t-58 22.5 q-18 0 -62.5 -15.5t-95.5 -35.5l-97 -40l-67 -28q-25 -10 -40 -31.5t-15 -48.5z" />
<glyph unicode="&#xf4;" horiz-adv-x="1120" d="M76 549q0 -106 31.5 -208.5t94 -183.5t152.5 -130.5t207 -49.5q115 0 205 49.5t151.5 130.5t93 183t31.5 207q0 106 -32.5 207.5t-94 180.5t-151.5 127t-205 48t-205 -48t-151.5 -127t-94 -180.5t-32.5 -205.5zM242 1260q0 -35 23.5 -57.5t56.5 -22.5q18 0 51 11 t68.5 25.5t67.5 30t50 21.5l50 -23l66 -28q34 -14 65.5 -25.5t50.5 -11.5q35 0 60.5 24.5t25.5 59.5q0 57 -52 77l-221 82l-23 10q-13 5 -24 5q-10 0 -22 -5l-23 -10l-217 -86q-53 -20 -53 -77zM260 547q0 68 16.5 139.5t52.5 132t92 99t136 38.5q82 0 139.5 -37.5t94 -96 t53 -131.5t16.5 -142q0 -72 -16.5 -145.5t-52 -134t-94 -98.5t-142.5 -38q-80 0 -136.5 39t-91 100.5t-51 134t-16.5 140.5z" />
<glyph unicode="&#xf5;" horiz-adv-x="1120" d="M76 549q0 -106 31.5 -208.5t94 -183.5t152.5 -130.5t207 -49.5q115 0 205 49.5t151.5 130.5t93 183t31.5 207q0 106 -32.5 207.5t-94 180.5t-151.5 127t-205 48t-205 -48t-151.5 -127t-94 -180.5t-32.5 -205.5zM260 547q0 68 16.5 139.5t52.5 132t92 99t136 38.5 q82 0 139.5 -37.5t94 -96t53 -131.5t16.5 -142q0 -72 -16.5 -145.5t-52 -134t-94 -98.5t-142.5 -38q-80 0 -136.5 39t-91 100.5t-51 134t-16.5 140.5zM260 1282q0 -35 24.5 -57.5t59.5 -22.5l430 -2q35 0 60.5 23.5t25.5 58.5t-24.5 58.5t-59.5 23.5h-434q-35 0 -58.5 -23.5 t-23.5 -58.5z" />
<glyph unicode="&#xf6;" horiz-adv-x="1120" d="M76 549q0 -106 31.5 -208.5t94 -183.5t152.5 -130.5t207 -49.5q115 0 205 49.5t151.5 130.5t93 183t31.5 207q0 106 -32.5 207.5t-94 180.5t-151.5 127t-205 48t-205 -48t-151.5 -127t-94 -180.5t-32.5 -205.5zM258 1346q0 -45 30.5 -76t76.5 -31q45 0 76.5 30.5 t31.5 76.5q0 45 -32.5 76.5t-78.5 31.5q-47 0 -75.5 -31.5t-28.5 -76.5zM260 545q0 68 16.5 140.5t51 133t92 99t137.5 38.5q82 0 140.5 -37.5t94 -98t52 -133.5t16.5 -142q0 -72 -16.5 -144.5t-53 -132t-95 -97.5t-140.5 -38q-80 0 -136.5 39t-91 99.5t-51 133t-16.5 140.5 zM649 1346q0 -45 30 -76t75 -31t76.5 32t31.5 77t-30.5 75.5t-73.5 30.5q-45 0 -77 -31.5t-32 -76.5z" />
<glyph unicode="&#xf7;" horiz-adv-x="1265" d="M88 414h948v139h-948v-139zM446 207q0 -49 34 -83t83 -34q47 0 81 35t34 82q0 51 -32 84t-83 33q-49 0 -83 -34t-34 -83zM446 758q0 -49 34 -83t83 -34q47 0 81 35t34 82t-34 81.5t-81 34.5q-49 0 -83 -33.5t-34 -82.5z" />
<glyph unicode="&#xf8;" horiz-adv-x="1118" d="M43 -16l80 -68l141 180q59 -59 135 -87.5t156 -28.5q115 0 206 47t153.5 125.5t95 179t32.5 207.5q0 100 -26.5 193t-81.5 177l32 37q22 25 43 52.5t37.5 53t16.5 42.5q0 27 -17.5 42t-41.5 15q-16 0 -38 -18.5t-42.5 -42t-38 -48t-27.5 -36.5q-66 49 -142.5 76.5 t-158.5 27.5q-115 0 -204 -48t-150.5 -128t-94 -180.5t-32.5 -204.5q0 -199 104 -369zM260 539q0 70 15.5 143.5t51 135t93 100t141.5 38.5q53 0 102.5 -20.5t84.5 -61.5l-445 -548q-43 100 -43 213zM367 215l448 553q25 -55 34 -112.5t9 -116.5q0 -70 -17.5 -141.5 t-54 -129t-94 -94.5t-137.5 -37q-53 0 -102 19.5t-86 58.5z" />
<glyph unicode="&#xf9;" horiz-adv-x="1126" d="M131 406q0 -209 112.5 -316.5t319.5 -107.5t319.5 107.5t112.5 316.5v614q0 37 -24.5 63.5t-61.5 26.5q-35 0 -60.5 -26.5t-25.5 -61.5v-612q0 -129 -62.5 -202t-197.5 -73t-196.5 73t-61.5 202v661l-174 -2v-663zM332 1378q0 -29 15 -49t40 -31l67 -27l97 -40 q51 -20 95 -35.5t63 -15.5q35 0 58.5 21.5t23.5 55.5q0 27 -15.5 48.5t-40.5 31.5q-23 8 -67 28l-97 40q-51 20 -96 35.5t-63 15.5q-35 0 -57.5 -21.5t-22.5 -56.5z" />
<glyph unicode="&#xfa;" horiz-adv-x="1126" d="M131 406q0 -209 112.5 -316.5t319.5 -107.5t319.5 107.5t112.5 316.5v614q0 37 -24.5 63.5t-61.5 26.5q-35 0 -60.5 -26.5t-25.5 -61.5v-612q0 -129 -62.5 -202t-197.5 -73t-196.5 73t-61.5 202v661l-174 -2v-663zM336 1257q0 -35 24.5 -57t59.5 -22q18 0 62 15t95 36 l96 40l66 27q25 10 40.5 32t15.5 48q0 35 -23.5 57.5t-58.5 22.5q-18 0 -62.5 -15.5t-95.5 -35.5l-97 -40l-67 -28q-25 -10 -40 -31.5t-15 -48.5z" />
<glyph unicode="&#xfb;" horiz-adv-x="1126" d="M131 406q0 -209 112.5 -316.5t319.5 -107.5t319.5 107.5t112.5 316.5v614q0 37 -24.5 63.5t-61.5 26.5q-35 0 -60.5 -26.5t-25.5 -61.5v-612q0 -129 -62.5 -202t-197.5 -73t-196.5 73t-61.5 202v661l-174 -2v-663zM246 1260q0 -35 23.5 -57.5t56.5 -22.5q18 0 51 11 t68.5 25.5t67.5 30t50 21.5l50 -23l66 -28q34 -14 65.5 -25.5t50.5 -11.5q35 0 60.5 24.5t25.5 59.5q0 57 -52 77l-221 82l-23 10q-13 5 -24 5q-10 0 -22 -5l-23 -10l-217 -86q-53 -20 -53 -77z" />
<glyph unicode="&#xfc;" horiz-adv-x="1126" d="M131 406q0 -209 112.5 -316.5t319.5 -107.5t319.5 107.5t112.5 316.5v614q0 37 -24.5 63.5t-61.5 26.5q-35 0 -60.5 -26.5t-25.5 -61.5v-612q0 -129 -62.5 -202t-197.5 -73t-196.5 73t-61.5 202v661l-174 -2v-663zM262 1346q0 -45 32 -75t75 -30q45 0 76.5 32t31.5 75 q0 47 -31.5 77.5t-76.5 30.5q-47 0 -77 -31.5t-30 -78.5zM651 1348q0 -45 31 -76t76 -31q47 0 77.5 31t30.5 76q0 47 -30.5 77.5t-75.5 30.5t-77 -31.5t-32 -76.5z" />
<glyph unicode="&#xfd;" />
<glyph unicode="&#xfe;" />
<glyph unicode="&#xff;" horiz-adv-x="886" d="M4 1040l352 -1005l-33 -84l-49 -124q-25 -65 -44 -122t-19 -76q0 -37 26.5 -59.5t61.5 -22.5t54.5 23.5t29.5 52.5q8 25 34 96l61 172l79 222l86 242l84 239l73 209q32 92 50 152.5t18 70.5q0 35 -26.5 59.5t-61.5 24.5q-33 0 -53 -21.5t-31 -50.5l-250 -766l-274 822z M139 1292q0 -47 33 -76.5t78 -29.5t75.5 32.5t30.5 75.5t-31.5 75t-74.5 32q-47 0 -79 -31t-32 -78zM532 1292q0 -41 31 -73.5t74 -32.5q47 0 79 29.5t32 76.5t-32 78t-79 31q-45 0 -75 -33t-30 -76z" />
<glyph unicode="&#x152;" horiz-adv-x="1935" d="M76 715q0 -141 42 -273.5t124 -235t200.5 -163.5t270.5 -61q137 0 259 62t191 183v-155q0 -35 24.5 -53.5t57.5 -18.5h531q35 0 59.5 22.5t24.5 57.5t-24 57.5t-58 22.5h-449v495h406q35 0 60.5 23.5t25.5 58.5t-24.5 57.5t-59.5 22.5h-406v496h428q35 0 58.5 22.5 t23.5 57.5t-24.5 58.5t-59.5 23.5h-506q-45 0 -63.5 -22.5t-23.5 -56.5t-2 -72t3 -67q-35 59 -84 104.5t-107.5 75t-124 45t-132.5 15.5q-166 0 -287 -66.5t-199.5 -176t-116.5 -251t-38 -288.5zM264 735q0 106 24.5 212t80 191t141.5 138t209 53q119 0 203 -54t137 -139 t77.5 -190.5t24.5 -208.5q0 -109 -23.5 -214t-76.5 -188t-140 -134t-212 -51q-121 0 -205 52t-137.5 136t-78 188.5t-24.5 208.5z" />
<glyph unicode="&#x153;" horiz-adv-x="1871" d="M76 551q0 -104 30.5 -205.5t90 -181.5t148.5 -129t204 -49q57 0 116.5 16t114 46t97.5 72t71 95q29 -55 73 -99t98.5 -74t115.5 -45t123 -15q63 0 124.5 14t121.5 39q-6 10 -17 32l-21 44q-11 23 -19.5 43t-8.5 30q-84 -39 -170 -39q-74 0 -132 27t-100 74t-65.5 108.5 t-26.5 132.5h658q59 0 84.5 16.5t25.5 80.5q0 102 -32.5 197.5t-94 169t-149.5 117.5t-197 44q-123 0 -228 -63.5t-163 -171.5q-27 53 -68.5 96t-94 73.5t-111 47t-117.5 16.5q-115 0 -205 -48t-151.5 -126t-93 -179.5t-31.5 -205.5zM260 535q0 68 14.5 142.5t48 139 t89 106.5t137.5 42q86 0 144.5 -35t95 -92.5t52 -130t15.5 -146.5q0 -72 -13.5 -147.5t-46 -137t-90 -101.5t-145.5 -40q-82 0 -139 37t-93 94.5t-52.5 128t-16.5 140.5zM1042 616q10 61 29 122t52.5 110t83.5 79.5t124 30.5q70 0 126 -28.5t94 -75.5t58.5 -108.5 t20.5 -129.5h-588z" />
<glyph unicode="&#x160;" />
<glyph unicode="&#x161;" />
<glyph unicode="&#x178;" horiz-adv-x="1036" d="M-2 1407q4 -6 5 -13.5t5 -13.5l420 -688v-618q0 -39 24.5 -65.5t65.5 -26.5q39 0 64.5 26.5t25.5 65.5v618l406 666q8 12 12 23.5t4 27.5q0 35 -25.5 57.5t-60.5 22.5q-53 0 -80 -45l-346 -574l-373 631zM215 1673q0 -47 33 -76.5t78 -29.5t75.5 32.5t30.5 75.5t-31.5 75 t-74.5 32q-47 0 -79 -31t-32 -78zM608 1673q0 -41 31 -73.5t74 -32.5q47 0 78.5 29.5t31.5 76.5t-31.5 78t-78.5 31q-45 0 -75 -33t-30 -76z" />
<glyph unicode="&#x192;" horiz-adv-x="724" d="M18 -289v-157h105q106 0 167.5 63.5t71.5 165.5l115 1147q27 0 65 -2t71.5 3t57 24.5t23.5 62.5q0 35 -24.5 50t-57 19.5t-66.5 2t-52 -2.5q6 70 14 139.5t14 139.5q2 31 20.5 43t45 16.5t56.5 3t55.5 5t42 21.5t16.5 52q0 33 -18.5 49.5t-46 22.5t-57.5 5t-50 -1 q-102 0 -166 -63.5t-74 -161.5l-31 -271q-27 0 -57.5 1.5t-56 -5t-43 -25t-17.5 -57.5q0 -33 17.5 -48t43 -19t53.5 -3t48 1l-110 -1088l-5 -49q-2 -25 -9 -44t-25.5 -30.5t-51.5 -11.5q-23 0 -42 1t-42 1z" />
<glyph unicode="&#x2c6;" horiz-adv-x="626" d="M-4 1260q0 -35 23.5 -57.5t56.5 -22.5q18 0 51 11t68.5 25.5t67.5 30t50 21.5l51 -23l65 -28q34 -14 65.5 -25.5t50.5 -11.5q35 0 60.5 24.5t25.5 59.5q0 57 -51 77l-222 82l-23 10q-13 5 -24 5q-10 0 -22 -5l-23 -10l-217 -86q-53 -20 -53 -77z" />
<glyph unicode="&#x2dc;" horiz-adv-x="591" d="M-4 1282q0 -35 24.5 -57.5t59.5 -22.5l430 -2q35 0 60.5 23.5t25.5 58.5t-24.5 58.5t-59.5 23.5h-434q-35 0 -58.5 -23.5t-23.5 -58.5z" />
<glyph unicode="&#x2000;" horiz-adv-x="917" />
<glyph unicode="&#x2001;" horiz-adv-x="1837" />
<glyph unicode="&#x2002;" horiz-adv-x="917" />
<glyph unicode="&#x2003;" horiz-adv-x="1837" />
<glyph unicode="&#x2004;" horiz-adv-x="612" />
<glyph unicode="&#x2005;" horiz-adv-x="458" />
<glyph unicode="&#x2006;" horiz-adv-x="305" />
<glyph unicode="&#x2007;" horiz-adv-x="305" />
<glyph unicode="&#x2008;" horiz-adv-x="229" />
<glyph unicode="&#x2009;" horiz-adv-x="366" />
<glyph unicode="&#x200a;" horiz-adv-x="100" />
<glyph unicode="&#x2010;" horiz-adv-x="737" d="M90 672l2 -160h488q33 0 55 23.5t22 56.5t-22.5 56.5t-54.5 23.5h-490z" />
<glyph unicode="&#x2011;" horiz-adv-x="737" d="M90 672l2 -160h488q33 0 55 23.5t22 56.5t-22.5 56.5t-54.5 23.5h-490z" />
<glyph unicode="&#x2012;" horiz-adv-x="737" d="M90 672l2 -160h488q33 0 55 23.5t22 56.5t-22.5 56.5t-54.5 23.5h-490z" />
<glyph unicode="&#x2013;" horiz-adv-x="1114" d="M61 694q0 -27 17.5 -47t46.5 -20h864q29 0 45.5 20.5t16.5 46.5q0 25 -17.5 45.5t-44.5 20.5h-862q-27 0 -46.5 -19.5t-19.5 -46.5z" />
<glyph unicode="&#x2014;" horiz-adv-x="1097" d="M96 399h901v174h-901v-174z" />
<glyph unicode="&#x2018;" horiz-adv-x="395" d="M4 1122q0 -35 25.5 -61.5t60.5 -26.5q25 0 46.5 13.5t31.5 35.5l180 369l-160 78l-176 -369q-8 -16 -8 -39zM18 1143q0 -37 27 -63.5t61 -26.5q25 0 45.5 13t30.5 36l34 66l48 97q25 50 44.5 94t19.5 62q0 37 -27 63.5t-61 26.5q-25 0 -47.5 -13t-32.5 -36l-34 -66 l-47 -97q-24 -50 -42.5 -94t-18.5 -62z" />
<glyph unicode="&#x2019;" horiz-adv-x="395" d="M12 1120l160 -78l176 369q10 20 10 39q0 35 -25.5 61.5t-62.5 26.5q-25 0 -46 -13.5t-31 -35.5z" />
<glyph unicode="&#x201a;" horiz-adv-x="380" d="M4 -188q0 -35 25.5 -61.5t60.5 -26.5q25 0 46.5 13t31.5 36l34 65l48 95q25 50 44 95.5t19 63.5q0 37 -27.5 62.5t-62.5 25.5q-25 0 -46 -12t-32 -35l-33 -66l-47 -97q-24 -50 -42.5 -95t-18.5 -63z" />
<glyph unicode="&#x201c;" horiz-adv-x="696" d="M4 1122q0 -35 25.5 -61.5t60.5 -26.5q25 0 46.5 13.5t31.5 35.5l180 369l-160 78l-176 -369q-8 -16 -8 -39zM311 1122q0 -35 25.5 -61.5t60.5 -26.5q25 0 46.5 13.5t31.5 35.5l180 369l-159 78l-177 -369q-8 -16 -8 -39z" />
<glyph unicode="&#x201d;" horiz-adv-x="696" d="M12 1120l160 -78l176 369q10 20 10 39q0 35 -25.5 61.5t-62.5 26.5q-25 0 -46 -13.5t-31 -35.5zM319 1120l160 -78l176 369q10 20 11 39q0 35 -26 61.5t-62 26.5q-25 0 -46.5 -13.5t-31.5 -35.5z" />
<glyph unicode="&#x201e;" horiz-adv-x="671" d="M4 -188q0 -35 25.5 -61.5t60.5 -26.5q25 0 46.5 13t31.5 36l180 368l-160 78l-176 -369q-8 -15 -8 -38zM291 -188q0 -35 25.5 -61.5t60.5 -26.5q25 0 46 13t32 36l180 368l-160 78l-176 -369q-8 -15 -8 -38z" />
<glyph unicode="&#x2020;" horiz-adv-x="1284" d="M106 803h449v-1237h172v1237h410q35 0 61.5 24.5t26.5 61.5t-27 61.5t-61 24.5h-412v438q0 35 -22.5 63.5t-61.5 28.5q-37 0 -59.5 -28.5t-22.5 -63.5v-438h-453v-172z" />
<glyph unicode="&#x2021;" horiz-adv-x="1329" d="M80 147q0 -35 25.5 -59.5t60.5 -24.5h412l2 -436q0 -35 23.5 -61.5t60.5 -26.5q39 0 60 25.5t21 62.5v436h414q35 0 61.5 24t26.5 60q0 35 -26.5 60.5t-61.5 25.5l-409 -2v564h409q35 0 63.5 24.5t28.5 61.5q0 35 -27.5 58.5t-62.5 23.5h-413v436q0 35 -24 62.5t-60 27.5 q-37 0 -59.5 -26.5t-22.5 -61.5l-4 -436h-410q-33 0 -58.5 -23.5t-25.5 -58.5t25.5 -61.5t60.5 -26.5h405l3 -562l-412 -2q-35 0 -60.5 -24.5t-25.5 -59.5z" />
<glyph unicode="&#x2022;" horiz-adv-x="507" d="M18 737q0 -37 14.5 -69.5t39 -57t57.5 -39t70 -14.5q76 0 128 52.5t52 127.5q0 76 -52.5 128.5t-127.5 52.5q-37 0 -70 -14.5t-57.5 -39t-39 -57.5t-14.5 -70z" />
<glyph unicode="&#x2026;" horiz-adv-x="1171" d="M84 92q0 -47 31.5 -78.5t79.5 -31.5q47 0 78.5 31.5t31.5 78.5t-31.5 79t-78.5 32t-79 -32t-32 -79zM475 92q0 -47 32 -78.5t79 -31.5t78.5 31.5t31.5 78.5t-31.5 79t-78.5 32t-79 -32t-32 -79zM866 92q0 -47 32 -78.5t79 -31.5q45 0 77.5 32.5t32.5 77.5t-32.5 78 t-77.5 33q-47 0 -79 -32t-32 -79z" />
<glyph unicode="&#x202f;" horiz-adv-x="366" />
<glyph unicode="&#x2030;" horiz-adv-x="1970" d="M80 1151q0 -61 17.5 -123.5t53 -113t88 -82t121.5 -31.5q72 0 124.5 33.5t87 86t52 117t17.5 125.5q0 63 -17.5 125t-51 110t-86 77.5t-121.5 29.5q-74 0 -127.5 -31.5t-88 -82t-52 -114t-17.5 -126.5zM203 1153q0 37 7 79t25.5 78t49 59.5t77.5 23.5q43 0 73 -22.5 t48.5 -56.5t26.5 -74t8 -77q0 -35 -8 -79t-26.5 -81.5t-48 -63.5t-75.5 -26q-43 0 -73.5 25t-49 60.5t-26.5 77.5t-8 77zM356 33q0 -27 15.5 -47.5t44.5 -20.5q18 0 36.5 13.5t24.5 31.5l514 1399q4 8 4 29q0 29 -16 49t-45 20q-45 0 -60 -41l-512 -1400q-6 -17 -6 -33z M713 313q0 -63 17.5 -125.5t52 -111.5t88 -80t124.5 -31q74 0 127.5 32t88 83t51 114.5t16.5 129.5q0 63 -16.5 123.5t-51 108.5t-87 77t-122.5 29q-72 0 -126 -31t-89.5 -80t-54 -112t-18.5 -126zM836 313q0 39 7 80t25.5 76t49 57.5t77.5 22.5q45 0 76 -20.5t49.5 -52.5 t26.5 -70.5t8 -75.5q0 -39 -6 -83t-24.5 -82t-49.5 -63.5t-80 -25.5q-47 0 -77.5 23.5t-49 58.5t-25.5 76.5t-7 78.5zM1325 313q0 -63 17.5 -125.5t52.5 -111.5t88 -80t125 -31q74 0 128 32t88 82t50 114.5t16 130.5q0 63 -16 123.5t-50 108.5t-86 77t-124 29t-125 -31 t-90 -80t-55.5 -112t-18.5 -126zM1450 313q0 37 7 79t24.5 77t48.5 57.5t78 22.5q45 0 75.5 -20.5t49 -52.5t26.5 -70.5t8 -75.5q0 -39 -6 -84t-24.5 -83t-49 -62.5t-79.5 -24.5q-47 0 -77 23.5t-48.5 59.5t-25.5 76.5t-7 77.5z" />
<glyph unicode="&#x2039;" horiz-adv-x="516" d="M80 549q0 -16 12 -37l21 -35l174 -301q12 -23 31.5 -38t46.5 -15t49 21.5t22 50.5q0 16 -6 29.5t-14 27.5l-178 293l180 293q16 27 16 55q0 29 -18.5 51.5t-48.5 22.5q-25 0 -46.5 -14.5t-33.5 -34.5l-183 -312q-8 -12 -16 -26.5t-8 -30.5z" />
<glyph unicode="&#x203a;" horiz-adv-x="516" d="M82 195q0 -31 18.5 -52.5t49.5 -21.5q25 0 46 14.5t33 34.5l183 309q8 12 16 26.5t8 31.5q0 16 -12 37l-21 36l-174 301q-12 20 -31.5 36t-43.5 16q-29 0 -50.5 -20.5t-21.5 -49.5q0 -16 5 -30.5t13 -28.5l179 -291l-181 -293q-16 -26 -16 -55z" />
<glyph unicode="&#x205f;" horiz-adv-x="458" />
<glyph unicode="&#x2122;" horiz-adv-x="1576" d="M100 1425q0 -20 14.5 -35.5t35.5 -15.5h147v-653h109v653h149q20 0 35.5 14.5t15.5 34.5t-14 36t-35 16h-407q-20 0 -35 -15t-15 -35zM587 724q-1 7 1 11l114 682q4 29 26 48.5t50 19.5q66 0 84 -64l166 -567l166 567q18 63 82 64q29 0 50.5 -19.5t25.5 -48.5l114 -682 q2 -8 2 -24l-110 2l-90 620l-185 -624h-110l-185 624l-92 -620l-108 -2q0 6 -1 13z" />
<glyph unicode="&#xe000;" horiz-adv-x="1110" d="M0 1110h1110v-1110h-1110v1110z" />
<glyph unicode="&#xe001;" horiz-adv-x="1449" d="M109 610q0 -70 21.5 -137t62 -120.5t100 -86.5t135.5 -33q59 0 107.5 21.5t87.5 57.5t70.5 82t56.5 93q23 -49 50 -95t63 -81t83 -56.5t107 -21.5q80 0 136 34t92 88.5t52.5 122t16.5 136.5q0 70 -21.5 137.5t-61.5 121t-99.5 86t-135.5 32.5q-59 0 -107 -21.5t-88 -57 t-71 -81t-55 -94.5q-23 49 -50.5 94.5t-64.5 81t-83 57t-105 21.5q-78 0 -134.5 -33.5t-93.5 -89t-54 -123t-17 -135.5zM160 604q0 53 16.5 99.5t48 81t75.5 55t99 20.5q98 0 165 -55t112 -135q-20 -45 -48 -100.5t-64 -103.5t-82 -81t-105 -33q-53 0 -94 20.5t-69 56.5 t-41 81t-13 94zM784 555q18 43 46 98.5t64 103.5t81 81.5t100 33.5q111 0 168 -73.5t57 -177.5q0 -53 -16 -100.5t-48 -82.5t-76 -54t-99 -19q-98 0 -166 52t-111 138z" />
<glyph unicode="&#xe002;" horiz-adv-x="1124" d="M88 37h948v139h-948v-139zM90 508l946 -297v143l-704 219l704 222v143l-946 -297v-133z" />
<glyph unicode="&#xe003;" horiz-adv-x="1124" d="M88 37h948v139h-948v-139zM88 211l948 297v133l-948 297v-143l705 -222l-705 -219v-143z" />
<glyph unicode="&#xe004;" horiz-adv-x="1009" d="M127 358q0 -72 18.5 -141.5t56.5 -123.5t96 -87t140 -33q113 0 192 65.5t132 156.5q74 127 102.5 269t28.5 288q0 82 -15.5 178t-54.5 178t-106.5 137t-171.5 55q-31 0 -68 -8t-68.5 -25.5t-52 -45t-20.5 -66.5q0 -35 23.5 -50t52.5 -15q33 0 60.5 22.5t53.5 48.5l52 49 q25 23 51 23q47 0 73.5 -41t39 -97.5t14.5 -113.5t2 -90q0 -74 -3 -153t-22 -150q-31 88 -87 139t-154 51q-82 0 -150 -36.5t-115 -97t-73.5 -135.5t-26.5 -151zM279 262q0 57 9 135t36.5 148.5t74.5 120t125 49.5q53 0 87 -23.5t53.5 -61.5t26.5 -83t7 -88q0 -55 -11 -131 t-38.5 -144.5t-76 -117t-121.5 -48.5q-51 0 -85 22.5t-53.5 57.5t-26.5 78t-7 86z" />
<glyph unicode="&#xe005;" horiz-adv-x="1677" d="M74 -442h987q102 0 155.5 62.5t75.5 154.5l62 266h-92q-39 -102 -87.5 -162.5t-111 -91.5t-142 -40t-182.5 -9h-383l705 807l-645 882h270q113 0 197 -17t144 -60t103.5 -115t75.5 -182h90l-30 264q-8 68 -17.5 108.5t-32 62t-62.5 29t-110 7.5h-942l768 -1053z" />
<glyph unicode="&#xe006;" horiz-adv-x="1665" d="M61 -360v-82h541v82h-172v1802h834v-1802h-172v-82h540v82h-180v1802h180v82h-1571v-82h181v-1802h-181z" />
<glyph unicode="&#xe007;" horiz-adv-x="1138" d="M35 254q0 -39 2 -86t15.5 -89t42 -70.5t83.5 -28.5q35 0 61.5 14t46 36.5t33 51.5t23.5 59q18 59 27.5 142.5t13.5 172.5t5 174t1 146l130 -4q65 -2 130 -2q-4 -94 -6 -186t-2 -187q0 -61 1 -134t19.5 -136.5t61.5 -105t129 -41.5q70 0 113 28.5t65.5 74.5t30.5 102.5 t8 113.5v10h-51q-2 -29 -6 -69.5t-16.5 -79.5t-35 -65.5t-61.5 -26.5q-37 0 -53.5 28.5t-22.5 68.5t-5 80t1 62v131q0 82 3 163t5 163q10 -4 23.5 -3t26.5 1q104 4 152 47t48 152v6h-47q4 -20 -12.5 -32.5t-40 -19t-47 -7.5t-35.5 -1q-131 0 -260 6.5t-260 6.5 q-72 0 -130.5 -9.5t-100.5 -36t-66.5 -75.5t-28.5 -131h47q16 68 67.5 88t110.5 20h45q0 -59 -1 -122.5t-5 -129t-12 -129t-22 -121.5q-12 -45 -39 -86t-80 -41q-47 0 -60.5 34t-15.5 73h-49z" />
<glyph unicode="&#xe008;" horiz-adv-x="555" d="M-184 -233q0 -68 52 -103t114 -35q53 0 98 20.5t82 54.5t65.5 77t48.5 88q33 78 52.5 202t30 259t14.5 264t6 217q0 16 2 69.5t5 124t11.5 148.5t20.5 143.5t31.5 107.5t46.5 42q20 0 32.5 -20.5t25.5 -45t33.5 -45t57.5 -20.5q47 0 73.5 25.5t26.5 72.5q0 68 -52 102.5 t-113 34.5q-106 0 -177 -66.5t-114 -171t-64.5 -234.5t-30 -258t-8.5 -240q0 -113 -2 -183q0 -16 -2 -71.5t-6 -129t-12 -155.5t-20.5 -149.5t-31 -112.5t-44.5 -45q-23 0 -35 20l-26 44q-13 24 -33.5 44.5t-57.5 20.5q-47 0 -73.5 -24.5t-26.5 -71.5z" />
<glyph unicode="&#xe009;" horiz-adv-x="1564" d="M102 836q0 -117 39 -207t107.5 -155.5t162 -107.5t199.5 -61v-121h-252q-51 0 -84.5 8.5t-53 29t-30 54t-12.5 84.5h-47v-360h557v369q-90 18 -154.5 61t-106.5 104.5t-62.5 138.5t-20.5 163q0 102 29.5 189t86 149.5t138.5 98.5t188 36t189.5 -36t139.5 -98.5t85 -149.5 t29 -189q0 -84 -20.5 -162t-63.5 -139.5t-107.5 -105.5t-152.5 -60v-369h557v360h-47q-4 -51 -13.5 -84.5t-29 -54t-53 -29t-85.5 -8.5h-251v121q106 20 199 61.5t162 107t107.5 155.5t38.5 207q0 143 -59 247.5t-155.5 170t-219.5 97t-250 31.5t-249.5 -31.5t-219 -97 t-156 -170t-59.5 -247.5z" />
<glyph unicode="&#xe00a;" horiz-adv-x="1124" d="M-29 877l25 -80l125 45l319 -883h66l594 1606h117v96h-191l-516 -1395l-256 709z" />
<glyph unicode="&#xe00b;" horiz-adv-x="1124" d="M31 205l69 47q37 25 76 45t80 33.5t82 13.5q59 0 115.5 -15.5l113 -32.5l111.5 -32.5t110 -15.5q86 0 161 32.5t145 79.5v160l-66 -47q-35 -25 -72.5 -45t-77.5 -32.5t-79 -12.5q-53 0 -106.5 15.5t-108 34t-110.5 33.5t-114 15q-92 0 -174 -35.5t-155 -83.5v-157z M31 449q72 51 148.5 95t168.5 44q57 0 112.5 -15.5t110 -33t108.5 -32.5t109 -15q84 0 161 32.5t145 79.5v158l-66 -47q-35 -25 -71.5 -44.5t-76.5 -31.5t-81 -12q-49 0 -103 15l-108 33q-55 17 -113.5 32.5t-116.5 15.5q-92 0 -173 -35t-154 -82v-157z" />
<glyph unicode="&#xe00c;" horiz-adv-x="1265" d="M43 0h1176l-566 1376h-45zM188 92l383 940l381 -940h-764z" />
<glyph unicode="&#xe00d;" horiz-adv-x="980" d="M6 592l500 -1069l500 1069l-500 1061zM121 592l385 817l385 -817l-385 -825z" />
</font>
</defs>
</svg>
