<?xml version="1.0" standalone="no"?>
<!DOCTYPE svg PUBLIC "-//W3C//DTD SVG 1.1//EN" "http://www.w3.org/Graphics/SVG/1.1/DTD/svg11.dtd" >
<svg xmlns="http://www.w3.org/2000/svg">
<metadata>
This is a custom SVG webfont generated by Font Squirrel.
Foundry     : Dalton Maag Ltd
</metadata>
<defs>
<font id="webfontfEdhzTd5" horiz-adv-x="1228" >
<font-face units-per-em="2048" ascent="1638" descent="-410" />
<missing-glyph horiz-adv-x="485" />
<glyph unicode="&#xfb00;" horiz-adv-x="1402" d="M236 891h-173q-8 33 -8 80q0 45 8 80h173v63q0 195 96 296t278 101q53 0 98.5 -7t79.5 -17q-6 -53 -20 -91t-31 -73q-18 6 -44.5 11t-63.5 5q-43 0 -79 -9t-60.5 -34.5t-38 -70.5t-13.5 -117v-57h443v73q0 195 97 296.5t284 101.5q51 0 90 -5.5t73 -15.5q-4 -51 -11 -88 t-19 -76l-48 10q-28 5 -67 5q-45 0 -81 -9.5t-61.5 -35t-40 -71.5t-14.5 -118v-67h269q6 -41 6 -84q0 -39 -6 -76h-269v-891q-23 -4 -50 -6t-50 -2t-51.5 2t-50.5 6v891h-443v-891q-23 -4 -50.5 -6t-49.5 -2q-23 0 -51.5 2t-50.5 6v891z" />
<glyph unicode="&#xfb01;" horiz-adv-x="1234" d="M236 891h-173q-8 33 -8 80q0 45 8 80h173v73q0 195 115.5 296.5t318.5 101.5q82 0 148.5 -10.5t150.5 -38.5q0 -47 -14.5 -89.5t-34.5 -76.5q-61 25 -111.5 35t-122.5 10q-53 0 -98 -9.5t-78 -35t-52.5 -71.5t-19.5 -118v-67h633v-1051q-23 -4 -50.5 -6t-49.5 -2 q-23 0 -50.5 2t-50.5 6v891h-432v-891q-23 -4 -50.5 -6t-49.5 -2q-23 0 -51.5 2t-50.5 6v891z" />
<glyph unicode="&#xfb02;" horiz-adv-x="1296" d="M236 889h-175q-6 39 -6 82q0 39 6 80h175v73q0 195 118.5 296.5t347.5 101.5q104 0 185.5 -11.5t159.5 -25.5v-1108q0 -80 8 -125t23.5 -68.5t40 -28.5t55.5 -5q20 0 42.5 2t38.5 6q12 -35 16.5 -75t4.5 -81q-31 -10 -71 -13t-75 -3q-68 0 -121 15t-89.5 55t-55 107.5 t-18.5 170.5v1005q-35 8 -78 11.5t-78 3.5q-55 0 -102 -10.5t-81 -36t-52.5 -71.5t-18.5 -118v-67h250q6 -43 6 -84t-6 -78h-250v-889q-23 -4 -50.5 -5t-49.5 -1q-23 0 -50.5 1t-49.5 5v889z" />
<glyph unicode="&#xfb03;" horiz-adv-x="1873" d="M881 1124q0 195 115.5 296.5t318.5 101.5q82 0 148.5 -10.5t150.5 -38.5q0 -47 -14.5 -89.5t-32.5 -76.5q-63 25 -113.5 35t-122.5 10q-53 0 -98 -9.5t-78 -35t-52.5 -71.5t-19.5 -118v-67h633v-1051q-23 -4 -50.5 -6t-49.5 -2q-23 0 -50.5 2t-49.5 6v891h-433v-891 q-23 -4 -50 -6t-50 -2t-51.5 2t-50.5 6v891h-443v-891q-23 -4 -50.5 -6t-49.5 -2q-23 0 -51.5 2t-50.5 6v891h-173q-8 33 -8 80q0 45 8 80h173v63q0 195 96 296t278 101q53 0 98.5 -7t79.5 -17q-6 -53 -20 -90t-31 -74q-18 6 -44.5 11t-63.5 5q-43 0 -79 -9t-60.5 -34.5 t-38 -70.5t-13.5 -117v-57h443v73z" />
<glyph unicode="&#xfb04;" horiz-adv-x="1941" d="M881 889h-445v-889q-23 -4 -50.5 -5t-49.5 -1q-23 0 -50.5 1t-49.5 5v889h-175q-6 39 -6 82q0 39 6 80h175v61q0 195 96 296t278 101q53 0 98.5 -6t79.5 -16q-8 -53 -21 -91t-30 -73q-20 4 -46.5 10t-61.5 6q-43 0 -79 -10t-60.5 -36.5t-39 -71.5t-14.5 -115v-55h445v73 q0 195 118.5 296.5t348.5 101.5q104 0 185 -11.5t159 -25.5v-1108q0 -80 8 -125t23.5 -68.5t40 -28.5t55.5 -5q20 0 42.5 2t39.5 6q12 -35 16 -77t4 -79q-29 -10 -70 -13t-75 -3q-68 0 -121 15t-90 55t-55.5 107.5t-18.5 170.5v1005q-35 8 -78 11.5t-78 3.5 q-55 0 -102 -10.5t-81 -36t-52.5 -71.5t-18.5 -118v-67h250q6 -43 6 -84t-6 -78h-250v-889q-23 -4 -50 -5t-50 -1t-50.5 1t-49.5 5v889z" />
<glyph unicode=" "  horiz-adv-x="485" />
<glyph unicode="&#x09;" horiz-adv-x="485" />
<glyph unicode="&#xa0;" horiz-adv-x="485" />
<glyph unicode="!" horiz-adv-x="593" d="M190 1473q27 4 52.5 6t52.5 2q29 0 57.5 -2t57.5 -6l-13 -1031q-47 -8 -96 -8q-55 0 -96 8zM182 0q-4 29 -6 56.5t-2 56.5t2 58.5t6 57.5q29 4 56.5 6.5t56.5 2.5t58.5 -2.5t58.5 -6.5q4 -29 6 -57.5t2 -56.5q0 -29 -2 -57.5t-6 -57.5q-29 -4 -57.5 -6t-57.5 -2t-57.5 2 t-57.5 6z" />
<glyph unicode="&#x22;" horiz-adv-x="860" d="M532 1473q23 4 48.5 6t49.5 2q25 0 49.5 -2t47.5 -6v-562q-47 -6 -97 -6q-53 0 -98 6v562zM131 1473q23 4 48.5 6t49.5 2q25 0 49.5 -2t47.5 -6v-562q-47 -6 -97 -6q-53 0 -98 6v562z" />
<glyph unicode="#" horiz-adv-x="1505" d="M389 428h-254q-6 37 -6 76q0 23 2 45t6 41h266l29 338h-254q-8 33 -8 80q0 45 8 79h266l29 326q25 4 47.5 5t48.5 1h43q20 0 43 -4l-26 -328h348l29 326q25 4 47 5t49 1h44q22 0 44 -4l-29 -328h240q6 -37 6 -73q0 -47 -6 -86h-252l-29 -338h238q4 -16 6 -37t2 -39 q0 -23 -2 -45.5t-6 -40.5h-252l-31 -369q-47 -6 -90 -6q-47 0 -90 6l29 369h-349l-28 -369q-49 -6 -96 -6q-43 0 -93 6zM936 590l29 338h-351l-26 -338h348z" />
<glyph unicode="$" d="M561 -23q-10 -2 -16 -2h-13q-63 0 -114 4.5t-95 12.5t-85 20.5l-84 26.5q4 45 17 91t30 89q70 -23 143.5 -40t177.5 -17q168 0 250 65.5t82 180.5q0 57 -17.5 96t-52 67.5t-88.5 52.5l-125 54l-98 41q-61 25 -112.5 55.5t-89.5 72.5t-58 99.5t-20 136.5q0 158 95 258.5 t273 124.5v199q31 8 70 8q41 0 74 -8v-190q86 -4 168.5 -18.5t142.5 -37.5q-10 -86 -45 -170q-55 20 -127 35.5t-166 15.5q-129 0 -198.5 -49t-69.5 -151q0 -49 18 -85t54 -63.5t86 -50.5l114 -49l78 -33q74 -31 133 -63.5t101 -77.5t65.5 -106.5t23.5 -149.5 q0 -174 -99 -283.5t-279 -144.5v-236q-16 -4 -35 -6t-35 -2q-18 0 -36.5 2t-37.5 6v219z" />
<glyph unicode="%" horiz-adv-x="2150" d="M1470 1450q25 4 50.5 6t50.5 2q27 0 54.5 -2t51.5 -6l-989 -1448q-29 -4 -53.5 -6t-48.5 -2q-57 0 -105 8zM1860 411q0 135 -46.5 210t-150.5 75q-100 0 -148.5 -74.5t-48.5 -210.5q0 -137 46 -211.5t151 -74.5q100 0 148.5 74.5t48.5 211.5zM1278 411q0 88 23.5 167 t70.5 138.5t120 94.5t171 35t170 -35t120 -94.5t71.5 -138.5t23.5 -167q0 -90 -23.5 -168.5t-71.5 -137t-120 -93.5t-170 -35t-171 35t-120 93.5t-70.5 137t-23.5 168.5zM672 1038q0 135 -46.5 210t-150.5 75q-100 0 -148.5 -74.5t-48.5 -210.5q0 -137 46 -211.5t151 -74.5 q100 0 148.5 74.5t48.5 211.5zM90 1038q0 88 23.5 167t70.5 138.5t120 94.5t171 35t170 -35t120 -94.5t71.5 -138.5t23.5 -167q0 -90 -23.5 -168.5t-71.5 -137t-120 -93.5t-170 -35t-171 35t-120 93.5t-70.5 137t-23.5 168.5z" />
<glyph unicode="&#x26;" horiz-adv-x="1558" d="M379 1137q0 -88 58.5 -140.5t187.5 -52.5h446l189 258h16v-258h266q8 -35 8 -80q0 -23 -2 -44t-6 -42h-266v-303q0 -125 -43 -219t-123 -156.5t-191.5 -93.5t-246.5 -31q-109 0 -209.5 25t-177 78t-121.5 137t-45 203q0 68 19.5 133t55 121.5t84 98.5t103.5 65 q-88 39 -148.5 111.5t-60.5 195.5q0 90 35 156.5t94 110.5t140 65.5t171 21.5q53 0 119 -8t137 -33q-2 -47 -12 -83t-33 -70q-53 16 -102 23t-96 7q-68 0 -114 -17.5t-75.5 -45t-43 -62t-13.5 -71.5zM688 160q119 0 196 30.5t120 82t59 119t16 138.5v244h-415 q-74 0 -133.5 -25.5t-100.5 -70.5t-63.5 -103.5t-22.5 -123.5q0 -141 88 -216t256 -75z" />
<glyph unicode="'" horiz-adv-x="456" d="M131 1473q23 4 48.5 6t49.5 2q25 0 49.5 -2t47.5 -6v-562q-47 -6 -97 -6q-53 0 -98 6v562z" />
<glyph unicode="(" horiz-adv-x="653" d="M350 -342q-47 70 -91 169t-79 222t-56.5 267.5t-21.5 306.5t21.5 307t56.5 268t79 221.5t91 169.5q16 4 42 6t54 2q29 0 55.5 -2t49.5 -6q-25 -43 -66 -126t-80.5 -204.5t-68.5 -280.5t-29 -355q0 -195 29 -354.5t68.5 -280.5t80.5 -204t66 -126q-23 -4 -51.5 -6 t-57.5 -2q-27 0 -51.5 2t-40.5 6z" />
<glyph unicode=")" horiz-adv-x="653" d="M102 -342q25 43 66 126t81 204t68.5 280.5t28.5 354.5q0 197 -28.5 355.5t-68.5 280t-81 204.5t-66 126q23 4 49.5 6t55.5 2t54.5 -2t41.5 -6q45 -72 90 -170t80 -221t56.5 -268.5t21.5 -306.5q0 -162 -21.5 -306.5t-56.5 -267.5t-80 -222t-90 -169q-16 -4 -40.5 -6 t-51.5 -2q-29 0 -57.5 2t-51.5 6z" />
<glyph unicode="*" horiz-adv-x="993" d="M434 1473q31 6 62 6t65 -6l17 -267q-23 -4 -42.5 -5t-39.5 -1t-40 1t-38 5zM375 1180q-12 -82 -47 -152l-250 98q8 63 41 121zM344 985q33 -16 65.5 -39.5t63.5 -52.5l-170 -207q-29 16 -54.5 33.5t-47.5 42.5zM874 1247q33 -57 41 -121l-249 -98q-35 70 -48 152z M793 762q-23 -25 -48.5 -42.5t-54.5 -33.5l-170 207q31 29 63.5 52.5t65.5 39.5z" />
<glyph unicode="+" d="M524 629h-340q-8 41 -8 92q0 49 8 90h340v373q23 4 44.5 6t45.5 2q23 0 45.5 -2t47.5 -6v-373h337q4 -23 6.5 -45.5t2.5 -44.5q0 -23 -2 -46.5t-7 -45.5h-337v-371q-25 -4 -47.5 -6t-45.5 -2q-51 0 -90 8v371z" />
<glyph unicode="," horiz-adv-x="436" d="M162 225q25 4 50.5 7.5t47.5 3.5q47 0 105 -11l-129 -456q-25 -4 -50.5 -5.5t-48.5 -1.5q-25 0 -49.5 1t-46.5 6z" />
<glyph unicode="-" horiz-adv-x="739" d="M635 668q4 -20 6 -46t2 -49t-2 -48t-6 -44h-531q-4 18 -6 44t-2 48q0 23 2 48.5t6 46.5h531z" />
<glyph unicode="." horiz-adv-x="493" d="M133 0q-4 29 -7 56.5t-3 56.5t3 58.5t7 57.5q29 4 56.5 6.5t56.5 2.5t57.5 -2.5t56.5 -6.5q4 -29 7.5 -57.5t3.5 -56.5q0 -29 -3 -57.5t-8 -57.5q-29 -4 -56.5 -6t-55.5 -2q-29 0 -57.5 2t-57.5 6z" />
<glyph unicode="/" horiz-adv-x="839" d="M569 1473q25 4 48.5 6t50.5 2q23 0 48 -2t52 -6l-500 -1473q-25 -4 -49 -6t-51 -2q-23 0 -47.5 2t-48.5 6z" />
<glyph unicode="0" d="M618 1341q129 0 226.5 -51t162 -142t96.5 -216t32 -275q0 -147 -33 -273t-97.5 -216t-163 -141.5t-227.5 -51.5t-225 51.5t-160.5 141.5t-96.5 216t-32 273q0 150 33 275t97.5 216t161.5 142t226 51zM616 1161q-141 0 -221 -125t-80 -379t80 -377.5t221 -123.5t219 123.5 t78 377.5t-78 379t-219 125z" />
<glyph unicode="1" d="M281 920q-29 35 -45.5 69.5t-32.5 81.5l545 260h30v-1157h293q6 -47 6 -86q0 -43 -6 -88h-801q-8 41 -8 88q0 45 8 86h308v881z" />
<glyph unicode="2" d="M129 0l-12 27l401 469l99 119q46 56 80 109.5t53.5 105t19.5 106.5q0 109 -69.5 166t-198.5 57q-98 0 -166 -22.5t-131 -51.5l-31.5 84t-19.5 88q72 31 158.5 57.5t203.5 26.5q104 0 190.5 -23.5t149 -70.5t96 -119.5t33.5 -171.5q0 -137 -75.5 -266t-215.5 -287 l-196 -223h542q4 -23 6.5 -45t2.5 -47q0 -23 -2.5 -45.5t-6.5 -42.5h-911z" />
<glyph unicode="3" d="M463 31q78 0 146.5 16t118.5 53t80 95.5t30 142.5q0 127 -84 188.5t-219 61.5q-41 0 -83 -3t-83 -14l-17 29l342 539h-526q-8 41 -8 88q0 23 2 47t6 47h829l15 -25l-373 -567q6 2 14 2h17q96 0 166.5 -33.5t116.5 -88t68.5 -121t22.5 -132.5q0 -131 -46 -226 t-123.5 -157.5t-182 -92.5t-223.5 -30q-102 0 -192.5 16.5t-178.5 51.5q6 45 23.5 88t40.5 84q66 -27 137.5 -43t163.5 -16z" />
<glyph unicode="4" d="M84 160l-16 22l600 1176q43 -4 89 -21.5t89 -46.5l-477 -950h413v389q25 4 49.5 6t47.5 2q27 0 52 -2t50 -6v-389h188q4 -23 6.5 -45.5t2.5 -44.5q0 -23 -2 -46.5t-7 -43.5h-188v-281q-27 -4 -50.5 -5t-47.5 -1q-25 0 -50.5 1t-50.5 5v281h-698z" />
<glyph unicode="5" d="M1047 350q0 -129 -45.5 -223t-124 -155.5t-186 -91.5t-232.5 -30q-78 0 -167 14.5t-163 45.5q6 45 20.5 87t36.5 85q63 -23 125 -36t148 -13q178 0 275 74.5t97 232.5q0 57 -17 108.5t-56 89t-101.5 59t-152.5 21.5q-63 0 -125 -10t-109 -26l-20 18q6 180 13 359.5 t16 361.5h696q4 -23 5 -44.5t1 -43.5q0 -25 -1 -48.5t-5 -45.5h-512l-12 -365q39 8 78.5 10t62.5 2q102 0 186 -28.5t143.5 -85t92.5 -137.5t33 -185z" />
<glyph unicode="6" d="M135 567q0 180 46 340t141.5 285t243 204t349.5 95q16 -49 17 -94q0 -20 -2 -41t-6 -37q-129 -12 -228.5 -60.5t-171 -124t-115.5 -175t-63 -211.5q45 78 132 134t218 56q82 0 161 -27.5t140.5 -85t98.5 -146.5t37 -212q0 -121 -42 -213t-112 -153.5t-159 -93.5t-183 -32 q-117 0 -210 34t-157.5 105.5t-99.5 183t-35 269.5zM645 766q-59 0 -112.5 -20.5t-92.5 -60.5t-61.5 -97.5t-22.5 -130.5q0 -154 73 -229.5t202 -75.5q61 0 113.5 20.5t91 59t61.5 96t23 133.5q0 82 -21.5 139t-58.5 94t-87.5 54.5t-107.5 17.5z" />
<glyph unicode="7" d="M502 -152q-55 12 -101.5 32t-89.5 54l525 1205h-693q-4 20 -6 41.5t-2 44.5q0 25 2 49t6 47h973l8 -14z" />
<glyph unicode="8" d="M815 780q53 -23 107.5 -55.5t98.5 -81.5t71.5 -114.5t27.5 -151.5q0 -109 -43 -185.5t-114.5 -125t-162.5 -70t-186 -21.5q-96 0 -186 21.5t-161.5 70t-114.5 125t-43 185.5q0 86 27.5 150.5t71.5 113.5t97 83t107 56q-98 47 -167 130t-69 208q0 80 34 145.5t92 111.5 t138 72t174 26t174 -26t138.5 -72t92.5 -111.5t34 -145.5q0 -127 -69 -209t-169 -129zM614 694q-61 -18 -114.5 -45.5t-91 -64.5t-60 -84t-22.5 -105q0 -115 73.5 -180t214.5 -65q143 0 216 65.5t73 179.5q0 57 -22.5 104.5t-61.5 84.5t-91.5 64.5t-113.5 45.5zM614 858 q49 14 92.5 35.5t76 50.5t52 69t19.5 91q0 92 -60.5 147.5t-179.5 55.5t-179 -55.5t-60 -147.5q0 -51 19.5 -91t52 -69t76.5 -50.5t91 -35.5z" />
<glyph unicode="9" d="M1106 745q0 -180 -46 -339.5t-141.5 -284.5t-243 -204t-349.5 -95q-16 39 -17 96q0 16 2 37.5t6 40.5q125 10 226.5 58t175.5 124t118 175.5t56 211.5q-43 -78 -130 -135t-218 -57q-84 0 -162 27.5t-139.5 85t-98 146.5t-36.5 212q0 121 42 213t111.5 154.5t158.5 94 t183 31.5q117 0 210 -33.5t157.5 -105.5t99.5 -184.5t35 -268.5zM596 547q59 0 112.5 20.5t92.5 60.5t61.5 97t22.5 129q0 154 -73 230.5t-202 76.5q-123 0 -205.5 -78.5t-82.5 -232.5q0 -82 21.5 -139.5t58 -94t87 -53t107.5 -16.5z" />
<glyph unicode=":" horiz-adv-x="493" d="M133 825q-4 29 -7 56.5t-3 56.5t3 58.5t7 57.5q29 4 56.5 6.5t56.5 2.5t57.5 -2.5t56.5 -6.5q4 -29 7.5 -57.5t3.5 -56.5q0 -29 -3 -57.5t-8 -57.5q-29 -4 -56.5 -6t-55.5 -2q-29 0 -57.5 2t-57.5 6zM133 0q-4 29 -7 56.5t-3 56.5t3 58.5t7 57.5q29 4 56.5 6.5t56.5 2.5 t57.5 -2.5t56.5 -6.5q4 -29 7.5 -57.5t3.5 -56.5q0 -29 -3 -57.5t-8 -57.5q-29 -4 -56.5 -6t-55.5 -2q-29 0 -57.5 2t-57.5 6z" />
<glyph unicode=";" horiz-adv-x="532" d="M180 225q25 4 50.5 7.5t47.5 3.5q47 0 105 -11l-129 -456q-25 -4 -50.5 -5.5t-48.5 -1.5q-25 0 -49.5 1t-46.5 6zM170 825q-4 29 -7 56.5t-3 56.5t3 58.5t7 57.5q29 4 56.5 6.5t56.5 2.5t57.5 -2.5t56.5 -6.5q4 -29 7.5 -57.5t3.5 -56.5q0 -29 -3 -57.5t-8 -57.5 q-29 -4 -56.5 -6t-55.5 -2q-29 0 -57.5 2t-57.5 6z" />
<glyph unicode="&#x3c;" d="M1047 1159q10 -57 10 -94q0 -29 -2 -54.5t-6 -45.5l-672 -260l672 -250q4 -23 6 -47.5t2 -49.5q0 -31 -2 -57.5t-8 -50.5l-852 346q-12 51 -13 113q0 55 13 104z" />
<glyph unicode="=" d="M1049 1001q4 -20 6 -46t2 -48q0 -23 -2 -48.5t-6 -43.5h-869q-4 18 -5 43.5t-1 48.5t1 48.5t5 45.5h869zM1049 610q4 -20 6 -46t2 -48q0 -23 -2 -48.5t-6 -43.5h-869q-4 18 -5 43.5t-1 48.5t1 48.5t5 45.5h869z" />
<glyph unicode="&#x3e;" d="M182 250q-4 29 -6 52.5t-2 41.5q0 29 2 54.5t6 45.5l670 261l-670 249q-6 23 -8 48.5t-2 48.5q0 33 3 59.5t7 48.5l854 -346l8 -53q4 -27 5 -60q0 -55 -13 -104z" />
<glyph unicode="?" horiz-adv-x="999" d="M373 770q78 20 139 46t104 61.5t66 83t23 112.5q0 104 -78 163.5t-224 59.5q-92 0 -148 -13t-116 -36q-18 39 -31.5 81t-19.5 89q49 16 91 27.5t82 17.5t81 9.5t88 3.5q242 0 366 -110t124 -290q0 -104 -42 -179t-98.5 -125t-116 -79.5t-96.5 -42.5v-211q-47 -8 -100 -8 q-23 0 -47.5 2t-46.5 6v332zM354 2q-4 29 -6 56.5t-2 56.5t2 57.5t6 56.5q29 4 57.5 7.5t57.5 3.5t57.5 -3.5t57.5 -7.5q4 -29 6 -56.5t2 -55.5q0 -29 -2 -57.5t-6 -57.5q-27 -4 -55.5 -6t-57.5 -2t-61.5 2t-55.5 6z" />
<glyph unicode="@" horiz-adv-x="2076" d="M1964 805q0 -127 -38 -250t-110.5 -221t-175 -158.5t-231.5 -60.5q-143 0 -225 63q-59 -35 -133 -55.5t-162 -20.5q-143 0 -230.5 87t-87.5 239q0 139 47.5 257t127 203t187 133t228.5 48q82 0 157 -12.5t146 -34.5l-147 -731q20 -16 50 -21.5t58 -5.5q86 0 151.5 50.5 t112 129t70 174t23.5 187.5q0 260 -153.5 395t-432.5 135q-213 0 -379 -74.5t-279.5 -199.5t-173 -285t-59.5 -330q0 -160 46 -274.5t126 -187t188.5 -107.5t233.5 -35q100 0 188.5 15.5t159.5 42.5q12 -29 24.5 -65t20.5 -79q-150 -70 -397 -69q-160 0 -302 45t-248.5 138 t-168 234.5t-61.5 333.5q0 184 64.5 371.5t199.5 340.5t343 249t495 96q156 0 292 -42t237 -128t159.5 -216t58.5 -304zM1245 893q-27 6 -49 9t-47 3q-80 0 -148.5 -33.5t-119 -93t-79 -139.5t-28.5 -172q0 -104 46 -153.5t138 -49.5q47 0 86 8.5t89 30.5z" />
<glyph unicode="A" horiz-adv-x="1263" d="M905 340h-559l-100 -340q-27 -4 -53.5 -6t-53.5 -2q-29 0 -56.5 2t-49.5 6l479 1473q27 4 57.5 6t63.5 2q29 0 59.5 -2t59.5 -6l477 -1473q-25 -4 -55.5 -6t-59.5 -2q-27 0 -54.5 2t-51.5 6zM401 522h449l-225 752z" />
<glyph unicode="B" horiz-adv-x="1218" d="M182 1473q51 10 143.5 16t186.5 6q117 0 213 -20.5t164.5 -66.5t106.5 -118.5t38 -177.5q0 -63 -19.5 -117.5t-52 -96.5t-75.5 -69.5t-88 -40.5q57 -6 115.5 -30.5t105.5 -69.5t76.5 -113.5t29.5 -166.5q0 -119 -47 -202t-128 -134.5t-190.5 -74t-234.5 -22.5 q-78 0 -170 7.5t-174 17.5v1473zM389 162q29 -4 73 -6t87 -2q74 0 138.5 12t113.5 42t77.5 80t28.5 128q0 76 -26.5 128t-72.5 83.5t-109.5 45t-137.5 13.5h-172v-524zM539 858q139 0 212.5 60.5t73.5 181.5q0 117 -78.5 174t-214.5 57q-41 0 -78.5 -2t-64.5 -6v-465h150z " />
<glyph unicode="C" horiz-adv-x="1265" d="M1120 215q45 -88 58 -170q-86 -37 -176.5 -53.5t-194.5 -16.5q-160 0 -288 52.5t-216 149.5t-135 236.5t-47 313.5q0 176 47 318.5t135 243t215 154.5t285 54q117 0 200.5 -16.5t149.5 -38.5q-4 -47 -17.5 -87t-31.5 -85q-31 10 -59.5 18t-61.5 14.5t-73 9.5t-91 3 q-223 0 -347 -151.5t-124 -436.5q0 -145 35 -251.5t98.5 -176.5t152.5 -104.5t200 -34.5q86 0 155.5 14t130.5 41z" />
<glyph unicode="D" horiz-adv-x="1431" d="M182 1473q70 8 168.5 15t192.5 7q387 0 578.5 -196.5t191.5 -565.5q0 -385 -195.5 -571.5t-582.5 -186.5q-96 0 -190.5 7.5t-162.5 17.5v1473zM391 172q29 -4 71 -7t89 -3q121 0 220 27.5t171 93t111 177t39 279.5q0 154 -39 262.5t-110 177t-169 99.5t-217 31 q-39 0 -85 -1t-81 -8v-1128z" />
<glyph unicode="E" horiz-adv-x="1097" d="M180 1473h809q6 -41 6 -91q0 -23 -1 -47t-5 -45h-600v-422h479q4 -20 6.5 -43.5t2.5 -46.5t-2.5 -47t-6.5 -45h-479v-504h617q6 -41 6 -90q0 -23 -1 -47.5t-5 -44.5h-826v1473z" />
<glyph unicode="F" horiz-adv-x="1032" d="M180 1473h770q4 -20 6 -44t2 -47t-2 -47t-6 -45h-561v-432h469q4 -23 6 -46.5t2 -45.5q0 -23 -2 -46.5t-6 -45.5h-469v-674q-25 -4 -50.5 -6t-53.5 -2q-27 0 -54.5 2t-50.5 6v1473z" />
<glyph unicode="G" horiz-adv-x="1394" d="M1032 762q25 4 51.5 6t53.5 2t53.5 -2t48.5 -6v-719q-43 -18 -94 -31.5t-106.5 -20.5t-111 -11.5t-104.5 -4.5q-164 0 -295 51.5t-221 148.5t-138 236.5t-48 315.5t49 318.5t140 243t217 154.5t280 54q117 0 203 -15.5t155 -41.5q-4 -47 -17 -87t-32 -85 q-57 18 -123.5 32.5t-167.5 14.5q-109 0 -197.5 -39t-151 -114t-97.5 -184.5t-35 -250.5q0 -145 36 -250.5t101.5 -176.5t154.5 -104.5t198 -33.5q66 0 114.5 7t83.5 17v576z" />
<glyph unicode="H" horiz-adv-x="1404" d="M180 1473q25 4 51.5 6t53.5 2t53.5 -2t50.5 -6v-607h627v607q23 4 49.5 6t52.5 2q27 0 54.5 -2t52.5 -6v-1473q-23 -4 -49.5 -6t-55.5 -2q-27 0 -54.5 2t-49.5 6v682h-627v-682q-25 -4 -50.5 -6t-53.5 -2q-27 0 -54.5 2t-50.5 6v1473z" />
<glyph unicode="I" horiz-adv-x="569" d="M180 1473q25 4 51.5 6t53.5 2t53.5 -2t50.5 -6v-1473q-25 -4 -50.5 -6t-53.5 -2q-27 0 -54.5 2t-50.5 6v1473z" />
<glyph unicode="J" horiz-adv-x="811" d="M432 1290h-258q-4 20 -6 45t-2 47q0 23 2 46.5t6 44.5h467v-1063q0 -123 -26.5 -207t-78 -134.5t-125 -72t-165.5 -21.5q-49 0 -98.5 7.5t-90.5 17.5q0 41 8.5 86t24.5 92l56.5 -13t66.5 -7q37 0 75 6t70.5 26.5t53 61.5t20.5 110v928z" />
<glyph unicode="K" horiz-adv-x="1230" d="M451 748l473 725q29 4 56.5 6t49.5 2q27 0 57.5 -2t63.5 -6l-467 -707l526 -766q-33 -4 -64.5 -6t-60.5 -2q-25 0 -53 2t-59 6zM180 1473q25 4 51.5 6t53.5 2t53.5 -2t50.5 -6v-1473q-25 -4 -51.5 -6t-52.5 -2q-29 0 -55.5 2t-49.5 6v1473z" />
<glyph unicode="L" horiz-adv-x="1013" d="M180 1473q23 4 48.5 6t54.5 2q27 0 53 -2t51 -6v-1289h578q4 -23 5 -47t1 -45q0 -49 -6 -92h-785v1473z" />
<glyph unicode="M" horiz-adv-x="1671" d="M221 1473q25 4 56.5 6t60.5 2t62.5 -2t56.5 -6l381 -922l383 922q20 4 51 6t59 2q27 0 59.5 -2t55.5 -6l70 -1473q-25 -4 -50.5 -6t-52.5 -2t-52.5 2t-47.5 6l-47 1145l-361 -840q-41 -6 -84 -6q-39 0 -78 6l-348 846l-47 -1151q-23 -4 -47.5 -6t-46.5 -2q-27 0 -51.5 2 t-46.5 6z" />
<glyph unicode="N" horiz-adv-x="1392" d="M180 1473q23 4 48.5 6t47.5 2q23 0 48.5 -2t48.5 -6l641 -1106v1106q25 4 51.5 6t52.5 2q23 0 47.5 -2t46.5 -6v-1473q-23 -4 -48 -6t-48 -2t-48.5 2t-47.5 6l-643 1100v-1100q-23 -4 -48.5 -6t-49.5 -2q-27 0 -52.5 2t-46.5 6v1473z" />
<glyph unicode="O" horiz-adv-x="1492" d="M748 -25q-160 0 -277 56.5t-193.5 158t-114.5 240.5t-38 305t38 305.5t114.5 240.5t193.5 158.5t277 57.5t276.5 -57.5t193 -158.5t113.5 -240.5t37 -305.5t-37 -305t-113.5 -240.5t-193 -158t-276.5 -56.5zM748 156q102 0 176.5 40t124 115.5t74 182t24.5 241.5 q0 133 -24.5 240.5t-74 182.5t-124 115t-176.5 40t-177 -40t-124.5 -115t-74 -182.5t-24.5 -240.5q0 -135 24.5 -241.5t74 -182t124.5 -115.5t177 -40z" />
<glyph unicode="P" horiz-adv-x="1159" d="M180 1475q31 4 73 8t88 7t92 5t89 2q113 0 214.5 -22.5t178 -78t121.5 -146.5t45 -228q0 -143 -48 -238.5t-127 -153t-179 -81t-205 -23.5q-39 0 -68.5 1t-64.5 5v-532q-49 -6 -104 -6q-25 0 -52.5 1t-52.5 5v1475zM389 715q33 -4 57.5 -6t71.5 -2q63 0 126 13t112 48 t78.5 95.5t29.5 156.5q0 84 -25.5 141.5t-70.5 92t-108.5 49t-137.5 14.5q-76 0 -133 -6v-596z" />
<glyph unicode="Q" horiz-adv-x="1482" d="M1382 -133q-2 -47 -9 -93t-25 -89l-471 88q4 57 12 94t24 82zM741 -25q-160 0 -276.5 56.5t-193 158t-114.5 240.5t-38 305t38 305.5t114.5 240.5t193.5 158.5t276 57.5q160 0 277 -57.5t193.5 -158.5t113.5 -240.5t37 -305.5t-37 -305t-113.5 -240.5t-193.5 -158 t-277 -56.5zM741 156q102 0 177 40t124.5 115.5t74 182t24.5 241.5q0 133 -24.5 240.5t-74 182.5t-124 115t-177.5 40q-102 0 -177 -40t-124 -115t-73.5 -182.5t-24.5 -240.5q0 -135 24.5 -241.5t73.5 -182t124 -115.5t177 -40z" />
<glyph unicode="R" horiz-adv-x="1222" d="M184 1475q45 4 82 8t73 7t75 5t86 2q104 0 206.5 -20.5t182.5 -71.5t130 -138t50 -220q0 -80 -26.5 -145.5t-67.5 -117t-93.5 -89.5t-101.5 -62l-24 -12l428 -621q-55 -6 -125 -6q-55 0 -111 6l-471 682v8l17 4q55 14 116.5 39t113.5 65t87 96t35 136q0 147 -87 219 t-235 72q-35 0 -64.5 -2t-66.5 -6v-1313q-23 -2 -50.5 -4t-51.5 -2q-25 0 -53.5 1t-53.5 5v1475z" />
<glyph unicode="S" horiz-adv-x="1116" d="M143 223q68 -25 141.5 -43t180.5 -18q168 0 251 68.5t83 185.5q0 57 -17.5 98t-52.5 70.5t-87 54.5t-122 53l-117 47q-59 25 -108 54.5t-85 72.5t-56.5 99.5t-20.5 134.5q0 186 127 291.5t356 105.5q98 0 186.5 -16.5t155.5 -40.5q-10 -86 -45 -170q-55 20 -127.5 36.5 t-164.5 16.5q-129 0 -199 -52t-70 -157q0 -43 17.5 -76.5t46 -59.5t67.5 -46.5t82 -36.5l115 -45q82 -33 145.5 -69t108.5 -84t68.5 -113.5t23.5 -153.5q0 -211 -145.5 -333t-407.5 -122q-63 0 -114.5 4.5t-95.5 12.5t-85 20.5l-84 26.5q4 45 18.5 92t30.5 92z" />
<glyph unicode="T" horiz-adv-x="1077" d="M434 1290h-383q-4 20 -6 45t-2 47q0 23 2 46.5t6 44.5h975q4 -20 6 -43t2 -46t-2 -48t-6 -46h-383v-1290q-47 -6 -102 -6q-57 0 -107 6v1290z" />
<glyph unicode="U" horiz-adv-x="1380" d="M166 1473q49 6 106 6q55 0 103 -6v-836q0 -127 16.5 -217t53 -146.5t97 -83t148.5 -26.5t147.5 26.5t96.5 83t53.5 146.5t16.5 217v836q51 6 104 6q57 0 106 -6v-873q0 -147 -27.5 -264t-90 -197t-162.5 -122t-244 -42q-143 0 -243.5 42t-163 122t-90 197t-27.5 264v873z " />
<glyph unicode="V" horiz-adv-x="1288" d="M45 1473q23 4 54.5 6t60.5 2q27 0 58.5 -2t57.5 -6l373 -1260l371 1260q55 6 113 6q27 0 56.5 -1t53.5 -5l-479 -1473q-27 -4 -59.5 -6t-61.5 -2t-60.5 2t-60.5 6z" />
<glyph unicode="W" horiz-adv-x="1886" d="M55 1473q23 4 56.5 6t62.5 2t58.5 -2t54.5 -6l252 -1227l303 1227q25 4 54.5 6t55.5 2q25 0 55.5 -2t53.5 -6l305 -1240l256 1240q23 4 48.5 6t49.5 2q29 0 58.5 -2t52.5 -6l-354 -1473q-25 -4 -58 -6t-59 -2q-29 0 -63.5 2t-63.5 6l-291 1153l-295 -1153 q-29 -4 -62.5 -6t-62.5 -2q-25 0 -56.5 2t-55.5 6z" />
<glyph unicode="X" horiz-adv-x="1247" d="M614 770l-350 -770q-59 -6 -108 -6q-51 0 -113 6l365 770l-308 700q31 4 57.5 5.5t55.5 1.5q55 0 109 -7zM631 770l293 700l43 5q20 2 43 2h55q23 0 39 -1t39 -6l-307 -694l366 -776q-61 -6 -112 -6q-45 0 -109 6z" />
<glyph unicode="Y" horiz-adv-x="1212" d="M504 539l-467 934q27 4 57.5 6t61.5 2q27 0 58.5 -2t55.5 -6l344 -732l340 732q27 4 53.5 6t55.5 2t57.5 -2t55.5 -6l-461 -934v-539q-27 -4 -53.5 -6t-53.5 -2t-54.5 2t-49.5 6v539z" />
<glyph unicode="Z" horiz-adv-x="1159" d="M49 18l742 1272h-650q-4 18 -6 43t-2 47q0 23 2 47.5t6 45.5h957l14 -19l-743 -1272h690q4 -18 6 -43.5t2 -48.5t-2 -47.5t-6 -42.5h-998z" />
<glyph unicode="[" horiz-adv-x="653" d="M102 1556h441q4 -23 6 -42t2 -41q0 -23 -2 -43.5t-6 -38.5h-240v-1569h240q4 -20 6 -40t2 -42q0 -23 -2 -43.5t-6 -40.5h-441v1900z" />
<glyph unicode="\" horiz-adv-x="843" d="M764 0q-25 -4 -49.5 -6t-46.5 -2q-27 0 -52.5 2t-50.5 6l-499 1473q23 4 49 6t51 2t51.5 -2t48.5 -6z" />
<glyph unicode="]" horiz-adv-x="653" d="M111 -344q-8 39 -9 84q0 47 9 82h239v1567h-239q-4 16 -6.5 32.5t-2.5 32.5q0 55 9 102h440v-1900h-440z" />
<glyph unicode="^" horiz-adv-x="1126" d="M457 1473q25 4 52.5 6t49.5 2q27 0 54.5 -2t56.5 -6l327 -719q-29 -4 -52 -5t-46 -1h-46q-24 0 -46 4l-250 548l-240 -548q-23 -4 -47 -4h-47q-20 0 -44.5 1t-53.5 5z" />
<glyph unicode="_" horiz-adv-x="1034" d="M1024 -31q8 -35 8 -75q0 -39 -8 -74h-1012q-6 20 -8 38.5t-2 39.5q0 16 2 34.5t8 36.5h1012z" />
<glyph unicode="`" horiz-adv-x="1024" d="M264 1477q31 4 61.5 6t67.5 2q33 0 67 -2t64 -6l236 -260q-47 -8 -96 -9q-31 0 -58.5 2t-50.5 7z" />
<glyph unicode="a" horiz-adv-x="1058" d="M719 494q-31 4 -78 8t-80 4q-127 0 -193.5 -47t-66.5 -144q0 -61 22.5 -96t56.5 -53.5t75 -22.5t77 -4q47 0 97.5 5.5t89.5 15.5v334zM719 692q0 121 -61.5 168t-178.5 47q-72 0 -134 -11t-122 -30q-39 68 -39 162q70 23 154 35t162 12q205 0 311.5 -93t106.5 -298v-657 q-72 -16 -174.5 -34t-208.5 -18q-100 0 -181.5 18.5t-137.5 59.5t-87 104.5t-31 153.5q0 88 36 154.5t97.5 111t141.5 66t168 21.5q66 0 107.5 -3.5t70.5 -7.5v39z" />
<glyph unicode="b" horiz-adv-x="1208" d="M162 1501q23 4 50.5 6t49.5 2q23 0 51.5 -2t51.5 -6v-577q37 61 114.5 106t188.5 45q94 0 174 -30.5t137 -95t89 -164t32 -234.5q0 -270 -152.5 -423t-439.5 -153q-90 0 -185.5 17.5t-160.5 40.5v1468zM365 170q37 -12 78.5 -17.5t86.5 -5.5q76 0 140.5 24t111.5 72 t75 122.5t28 177.5q0 170 -59.5 264t-196.5 94q-47 0 -93.5 -15.5t-85 -49t-62 -90t-23.5 -136.5v-440z" />
<glyph unicode="c" horiz-adv-x="978" d="M864 182q16 -29 28.5 -71.5t14.5 -87.5q-121 -47 -276 -48q-262 0 -395.5 148.5t-133.5 400.5q0 117 33 217.5t97.5 174t160.5 116.5t223 43q86 0 152 -10t125 -33q0 -35 -9.5 -81t-25.5 -81q-100 35 -229 35q-158 0 -236 -104.5t-78 -276.5q0 -197 88.5 -288t241.5 -91 q61 0 113.5 8.5t105.5 28.5z" />
<glyph unicode="d" horiz-adv-x="1200" d="M838 1501q23 4 51.5 6t48.5 2q23 0 50.5 -2t49.5 -6v-1472q-78 -23 -174 -38.5t-215 -15.5q-111 0 -210 28t-172.5 91.5t-117 163.5t-43.5 248q0 127 38 231.5t108 179t167 115.5t216 41q53 0 107.5 -8t95.5 -21v457zM838 872q-41 16 -88.5 24.5t-102.5 8.5 q-84 0 -145.5 -30.5t-101.5 -84t-59 -126t-19 -158.5q2 -195 92 -279t245 -84q53 0 98.5 5.5t80.5 15.5v708z" />
<glyph unicode="e" horiz-adv-x="1138" d="M315 475q4 -172 89 -252t251 -80q145 0 277 52q16 -31 26.5 -75t12.5 -87q-68 -29 -149 -43.5t-179 -14.5q-143 0 -245.5 40t-169 113t-97.5 172t-31 218q0 117 30 218.5t91.5 176t154.5 118.5t220 44q109 0 190.5 -37t137 -101.5t84 -153.5t28.5 -193q0 -29 -2 -60.5 t-4 -54.5h-715zM836 627q0 57 -15.5 109t-45.5 91t-76 62.5t-109 23.5q-125 0 -191.5 -75.5t-81.5 -210.5h519z" />
<glyph unicode="f" horiz-adv-x="757" d="M236 891h-173q-8 33 -8 80q0 45 8 80h173v73q0 195 97 296.5t283 101.5q51 0 90 -5.5t74 -15.5q-4 -51 -11 -88t-19 -76l-49 10q-28 5 -66 5q-45 0 -81 -9.5t-61.5 -35t-40 -71.5t-14.5 -118v-67h269q6 -41 6 -84q0 -39 -6 -76h-269v-891q-23 -4 -50.5 -6t-49.5 -2 q-23 0 -51.5 2t-50.5 6v891z" />
<glyph unicode="g" horiz-adv-x="1132" d="M727 135q182 -4 264 -77.5t82 -202.5q0 -84 -43 -150.5t-118.5 -115t-179 -74t-224.5 -25.5q-211 0 -321.5 65.5t-110.5 206.5q0 84 45 151t117 105q-41 27 -69 67t-28 99q0 76 34 131.5t91 98.5q-68 47 -108.5 121.5t-40.5 169.5q0 78 28.5 145.5t83 117.5t134 78.5 t182.5 28.5q92 0 166.5 -26.5t128.5 -67.5q41 33 110.5 54.5t153.5 21.5q8 -39 8 -86q0 -23 -2 -47.5t-6 -49.5h-184q23 -35 35 -75.5t12 -93.5q0 -84 -31 -152t-87 -116t-134 -73.5t-170 -25.5q-84 0 -152 18q-29 -16 -56.5 -50t-27.5 -73q0 -37 26.5 -64.5t119.5 -29.5z M451 -27h-7q-87 0 -132 -49q-46 -51 -46 -123q0 -45 18.5 -73.5t52.5 -46t80 -24.5t101 -7q164 0 256 54t92 136q0 61 -39 94t-143 35zM545 485q111 0 164 61.5t53 158.5q0 98 -53.5 160.5t-163.5 62.5q-111 0 -163 -62.5t-52 -160.5q0 -96 52 -158t163 -62z" />
<glyph unicode="h" horiz-adv-x="1183" d="M162 1501q23 4 50.5 6t49.5 2q23 0 51.5 -2t51.5 -6v-610q18 29 45.5 61.5t67.5 60t92.5 45t115.5 17.5q180 0 267 -103.5t87 -305.5v-666q-23 -4 -50 -6t-50 -2t-50.5 2t-49.5 6v610q0 145 -48.5 214t-146.5 69q-55 0 -106.5 -19.5t-90 -61.5t-61 -109.5t-22.5 -163.5 v-539q-23 -4 -51.5 -6t-51.5 -2q-20 0 -49 2t-51 6v1501z" />
<glyph unicode="i" horiz-adv-x="589" d="M225 891h-133q-4 16 -6 37.5t-2 42.5q0 20 2 41.5t6 38.5h332v-1051q-23 -4 -50.5 -6t-49.5 -2q-20 0 -48 2t-51 6v891zM180 1282q-4 25 -5 53.5t-1 50.5q0 23 1 51.5t5 51.5q27 4 57.5 6t53.5 2t53.5 -2t54.5 -6q4 -23 5.5 -51.5t1.5 -51.5t-1.5 -51t-5.5 -53 q-25 -4 -54.5 -6t-51.5 -2q-25 0 -55.5 2t-57.5 6z" />
<glyph unicode="j" horiz-adv-x="593" d="M231 891h-133q-4 16 -6 37.5t-2 42.5q0 20 2 41.5t6 38.5h332v-1110q0 -92 -24.5 -153.5t-68.5 -99.5t-103.5 -54.5t-129.5 -16.5q-111 0 -186 27q2 39 10.5 79.5t22.5 73.5q49 -16 115 -16q27 0 55.5 4t53 21.5t40.5 52.5t16 96v936zM182 1284q-4 29 -6 54.5t-2 47.5 q0 23 2 48.5t6 52.5q27 4 57.5 7t53.5 3t52.5 -3t53.5 -7q4 -27 6.5 -52.5t2.5 -48.5t-2.5 -48t-6.5 -54q-25 -4 -54.5 -7t-51.5 -3q-23 0 -53.5 3t-57.5 7z" />
<glyph unicode="k" horiz-adv-x="1052" d="M156 1501q23 4 50 6t50 2t51.5 -2t50.5 -6v-1501q-23 -4 -51 -6t-51 -2t-50.5 2t-49.5 6v1501zM414 545l334 506q27 4 53 6t55 2q31 0 58.5 -2t56.5 -6l-334 -492l391 -559q-29 -4 -55.5 -6t-54.5 -2q-29 0 -58 2t-57 6z" />
<glyph unicode="l" horiz-adv-x="610" d="M160 1501q23 4 50.5 6t49.5 2q23 0 50.5 -2t49.5 -6v-1184q0 -57 10.5 -89.5t28 -50t41 -22.5t49.5 -5q18 0 42 2t40 6q18 -72 19 -156q-29 -10 -70 -13t-76 -3q-59 0 -110 14t-90 47t-61.5 88t-22.5 137v1229z" />
<glyph unicode="m" horiz-adv-x="1748" d="M164 1051q23 4 44 6t44 2t42 -2t42 -6q6 -31 12 -81t6 -85q18 37 46 70.5t66 60t87 43t109 16.5q123 0 189.5 -50t100.5 -140q20 35 50 69.5t67 61t84 43t107 16.5q182 0 265 -102.5t83 -302.5v-670q-23 -4 -51.5 -6t-51.5 -2t-50.5 2t-49.5 6v610q0 141 -43 212t-141 71 q-104 0 -169 -76t-65 -223v-594q-23 -4 -50.5 -6t-49.5 -2q-23 0 -50.5 2t-50.5 6v625q0 137 -40.5 205.5t-131.5 68.5q-51 0 -96 -22.5t-78.5 -67.5t-53 -113.5t-19.5 -158.5v-537q-23 -4 -50.5 -6t-50.5 -2t-51.5 2t-50.5 6v1051z" />
<glyph unicode="n" horiz-adv-x="1183" d="M164 1051q23 4 44 6t44 2t42 -2t42 -6q6 -31 12 -83.5t6 -86.5q20 35 52 69.5t73 62t94.5 45t116.5 17.5q180 0 266 -103.5t86 -305.5v-666q-23 -4 -51 -6t-51 -2t-50.5 2t-49.5 6v610q0 145 -45 214t-144 69q-57 0 -108 -20.5t-90 -63.5t-62.5 -111.5t-23.5 -165.5v-532 q-23 -4 -50.5 -6t-50.5 -2t-51.5 2t-50.5 6v1051z" />
<glyph unicode="o" horiz-adv-x="1181" d="M590 -25q-123 0 -215 42t-153.5 116t-91.5 174.5t-30 216.5q0 117 30 217.5t91.5 174t153.5 116.5t215 43t215 -43t153.5 -116.5t91 -174t29.5 -217.5t-29.5 -217t-91 -174t-153.5 -116t-215 -42zM590 137q141 0 208.5 102.5t67.5 284.5t-67.5 283.5t-208.5 101.5 t-208 -101t-67 -284q0 -182 67 -284.5t208 -102.5z" />
<glyph unicode="p" horiz-adv-x="1208" d="M162 1051q20 4 41.5 6t44.5 2q20 0 42.5 -2t43.5 -6q2 -4 5 -25.5t6 -46.5l6 -47q3 -23 3 -29q20 33 49 63.5t69 55.5t90 39t112 14q92 0 171 -30.5t135 -95t88 -164t32 -234.5q0 -270 -146.5 -423t-414.5 -153q-45 0 -92.5 6.5t-81.5 16.5v-481q-25 -4 -52.5 -6.5 t-50.5 -2.5t-50.5 2.5t-49.5 6.5v1534zM365 172q39 -14 79.5 -20.5t106.5 -6.5q74 0 135.5 24t105.5 73t69.5 123.5t25.5 177.5q0 164 -60.5 260t-197.5 96q-51 0 -98.5 -18.5t-84 -55.5t-59 -93t-22.5 -134v-426z" />
<glyph unicode="q" horiz-adv-x="1198" d="M836 0q-43 -10 -91.5 -16.5t-107.5 -6.5q-106 0 -202.5 26t-169 87.5t-116 160.5t-43.5 247q0 127 40 233.5t114 183t179.5 118.5t236.5 42q115 0 196.5 -12t163.5 -35v-1511q-23 -4 -50.5 -6.5t-49.5 -2.5q-23 0 -50.5 2.5t-49.5 6.5v483zM836 889q-29 6 -48.5 9 t-36.5 4l-35 2q-17 1 -40 1q-90 0 -157.5 -30.5t-112 -86t-67 -131t-22.5 -168.5q0 -92 25 -157.5t69 -107.5t103 -60.5t131 -18.5q53 0 101.5 8.5t89.5 18.5v717z" />
<glyph unicode="r" horiz-adv-x="761" d="M164 1051q23 4 43 6t43 2t45 -2t41 -6q6 -31 12 -81t6 -85q43 70 114 121t181 51q16 0 33.5 -1t30.5 -3q4 -18 6 -39t2 -43q0 -25 -3 -51.5t-7 -51.5q-16 4 -34 4h-28q-55 0 -105 -15t-90 -54t-63.5 -106.5t-23.5 -174.5v-522q-23 -4 -50.5 -6t-50.5 -2t-50.5 2t-51.5 6 v1051z" />
<glyph unicode="s" horiz-adv-x="931" d="M145 190q55 -23 122 -36t132 -13q47 0 90 10.5t75 31t51.5 50t19.5 66.5q0 41 -15.5 67.5t-41 45t-59.5 32t-73 25.5l-71 27q-131 49 -190.5 110.5t-59.5 165.5q0 139 99.5 221t291.5 82q80 0 157 -15.5t134 -35.5q-4 -41 -15.5 -82t-27.5 -76q-45 16 -107.5 31.5 t-134.5 15.5q-76 0 -134 -26.5t-58 -93.5q0 -35 14 -59.5t39 -42t56.5 -30t68.5 -24.5l90 -31q49 -16 93 -38.5t76 -56.5t51.5 -82t19.5 -116q0 -76 -31 -138t-87 -106t-136 -69t-176 -25q-98 0 -172 13.5t-138 36.5q4 41 17.5 82.5t29.5 82.5z" />
<glyph unicode="t" horiz-adv-x="733" d="M203 889h-160l-8 29l352 393h16v-260h267q8 -35 8 -78q0 -23 -2 -43.5t-6 -40.5h-267v-479q0 -86 7.5 -137.5t25 -79t47 -37t74.5 -9.5q35 0 65.5 5.5t55.5 11.5q14 -41 17 -84t3 -76q-41 -10 -86 -15t-96 -5q-147 0 -230 71.5t-83 237.5v596z" />
<glyph unicode="u" horiz-adv-x="1175" d="M152 1051q23 4 51 6t49 2q23 0 51.5 -2t50.5 -6v-576q0 -98 18.5 -162.5t55.5 -101.5t90 -51.5t123 -14.5q104 0 178 23v883q23 4 50.5 6t50.5 2t50 -2t50 -6v-1018q-72 -20 -171 -39t-206 -19q-100 0 -189 17.5t-157 71t-106.5 149.5t-38.5 254v584z" />
<glyph unicode="v" horiz-adv-x="1087" d="M35 1051q29 4 59.5 6t55.5 2q27 0 58.5 -2t53.5 -6l287 -867l289 867q23 4 51.5 6t54.5 2q23 0 51.5 -2t57.5 -6l-410 -1051q-27 -4 -53.5 -6t-48.5 -2q-23 0 -48.5 2t-50.5 6z" />
<glyph unicode="w" horiz-adv-x="1587" d="M45 1051q29 4 57.5 6t51.5 2q29 0 58.5 -2t51.5 -6l205 -858l231 858q23 4 49.5 6t55.5 2q33 -2 56.5 -3t45.5 -5l230 -844l204 844q23 4 45.5 6t49.5 2q23 0 50 -2t56 -6l-313 -1051q-27 -4 -54.5 -6t-50.5 -2t-49 2t-53 6l-225 795l-236 -795q-29 -4 -56.5 -6t-49.5 -2 q-23 0 -50.5 2t-50.5 6z" />
<glyph unicode="x" horiz-adv-x="1042" d="M322 545l-248 506q47 8 106 8q29 0 56.5 -2t58.5 -6l217 -508l-262 -543q-27 -4 -52.5 -6t-50.5 -2q-29 0 -55 2t-55 6zM528 543l220 508q29 4 57.5 6t56.5 2q55 0 103 -8l-244 -500l285 -551q-29 -4 -55.5 -6t-55.5 -2q-55 0 -102 8z" />
<glyph unicode="y" horiz-adv-x="1083" d="M522 -2q-16 0 -33.5 -1t-33.5 -1q-20 0 -43 1t-37 3l-348 1051q27 4 55.5 5t52.5 1q27 0 59.5 -1t55.5 -5l291 -977l301 977q43 6 100 6q23 0 51.5 -1t57.5 -5l-408 -1264q-29 -84 -59.5 -141.5t-69.5 -92t-87 -49t-112 -14.5q-47 0 -93 7t-81 18q0 47 8.5 83.5 t24.5 73.5q18 -6 50 -13t69 -7q27 0 50.5 5t44 20.5t37.5 44t34 77.5z" />
<glyph unicode="z" horiz-adv-x="976" d="M59 29l553 860h-487q-6 37 -6 82q0 43 6 80h788l11 -27l-557 -862h522q6 -41 6 -84q0 -41 -6 -78h-819z" />
<glyph unicode="{" horiz-adv-x="847" d="M311 80q0 119 -4 200.5t-24.5 140t-62.5 99.5t-118 80v27q55 29 95.5 60.5t65 72.5t35.5 93t11 122q0 145 9.5 255.5t49.5 185.5t119.5 113t219.5 38h28q4 -20 6 -40t2 -42q0 -23 -2 -42.5t-6 -37.5q-78 0 -123 -16.5t-68.5 -54.5t-30.5 -97t-7 -145v-13 q0 -113 -8.5 -190.5t-28.5 -129.5t-54 -86t-83 -59q49 -27 83 -60.5t54 -85.5t28.5 -130t8.5 -191v-14q0 -84 7 -143.5t30.5 -96t68.5 -54t123 -17.5q4 -18 6 -38t2 -42q0 -20 -2 -40.5t-6 -41.5q-123 0 -203.5 24.5t-130 76t-70 131t-20.5 188.5z" />
<glyph unicode="|" horiz-adv-x="681" d="M242 1589q23 4 48 6t52 2q25 0 50.5 -2t47.5 -6v-1933q-23 -4 -47 -6t-51 -2t-52.5 2t-47.5 6v1933z" />
<glyph unicode="}" horiz-adv-x="847" d="M535 80q0 -109 -20.5 -188.5t-70 -131t-130.5 -76t-203 -24.5q-4 20 -6.5 40.5t-2.5 41.5q0 23 2 42t7 38q76 0 122 17.5t69.5 54t30.5 96t7 143.5v14q0 113 8 191t28.5 130t54.5 86t83 60q-49 25 -83 59t-54.5 86t-28.5 130t-8 190v13q0 86 -7 145t-30.5 97t-70 54.5 t-121.5 16.5q-4 18 -6.5 37.5t-2.5 42.5t2 42t7 40h28q139 0 219 -38t120 -113t49.5 -185.5t9.5 -255.5q0 -70 11 -122t35.5 -93t64.5 -73t95 -60v-27q-76 -39 -117.5 -80t-62 -99.5t-24.5 -140t-4 -200.5z" />
<glyph unicode="~" horiz-adv-x="976" d="M39 838q41 49 114.5 84.5t155.5 35.5q47 0 92 -13t91.5 -28.5t92.5 -27.5t93 -12q41 0 83 14t93 61q33 -31 52.5 -66.5t33.5 -74.5q-47 -47 -110.5 -76.5t-149.5 -29.5q-47 0 -93 12t-92 27.5t-92.5 28.5t-89.5 13q-49 0 -93 -16t-93 -63q-65 57 -88 131z" />
<glyph unicode="&#xa1;" horiz-adv-x="593" d="M403 -418q-29 -4 -54 -6t-52 -2q-29 0 -56.5 2t-56.5 6l13 1030q25 4 49 6.5t47 2.5q25 0 49.5 -2.5t46.5 -6.5zM412 1055q4 -29 6 -57.5t2 -57.5t-2 -57.5t-6 -57.5q-29 -4 -57.5 -6t-57.5 -2t-57.5 2t-57.5 6q-4 29 -6 56.5t-2 56.5t2 58.5t6 58.5q29 4 56.5 6t56.5 2 t58.5 -2t58.5 -6z" />
<glyph unicode="&#xa2;" d="M666 -18q-217 23 -327 166t-110 376q0 106 28 200.5t82 166.5t136 119t191 59v234q37 10 69 10q33 0 74 -10v-232q59 -4 110.5 -14t98.5 -27q0 -41 -10.5 -84t-24.5 -76q-51 16 -106.5 25.5t-120.5 9.5q-160 0 -240 -103.5t-80 -277.5q0 -199 90 -290t244 -91 q61 0 112.5 8.5t106.5 28.5q16 -29 28.5 -71.5t14.5 -88.5q-53 -16 -107.5 -27t-115.5 -16v-219q-33 -8 -72 -8q-18 0 -36.5 2t-34.5 6v224z" />
<glyph unicode="&#xa3;" d="M203 25l39 36q39 37 67.5 86.5t46 102.5t25.5 103t8 91q0 45 -5 89.5t-15 91.5h-179q-6 37 -6 80q0 39 6 79h146l-19.5 120t-9.5 124q0 88 27.5 169t84 142.5t143.5 98.5t208 37q109 0 181.5 -16.5t125.5 -39.5q-4 -41 -14 -82t-33 -88q-57 25 -114.5 37t-133.5 12 q-72 0 -122 -22.5t-80.5 -61t-45 -91t-14.5 -109.5q0 -63 9.5 -118.5t21.5 -111.5h383q6 -41 6 -84q0 -39 -6 -75h-354q8 -37 13 -75t5 -77q0 -86 -18.5 -160.5t-57.5 -128.5h557q4 -23 5 -47t1 -45q0 -49 -6 -92h-868z" />
<glyph unicode="&#xa4;" d="M172 713q0 70 20.5 131t57.5 114l-162 164q23 45 53.5 74t71.5 47l162 -164q51 35 111.5 53.5t127.5 18.5q68 0 128.5 -18.5t113.5 -53.5l164 164q37 -23 68.5 -52.5t52.5 -66.5l-162 -161q39 -53 60.5 -117t21.5 -133q0 -70 -21.5 -131.5t-56.5 -114.5l156 -156 q-45 -78 -117 -121l-162 160q-109 -74 -246 -74q-139 0 -247 74l-158 -157q-45 20 -74 51.5t-47 70.5l156 156q-35 51 -53.5 112.5t-18.5 129.5zM354 713q0 -57 19.5 -106.5t54.5 -86.5t83 -58.5t103 -21.5q57 0 105.5 21.5t83.5 58.5t55.5 86t20.5 107q0 57 -20.5 106 t-55.5 86t-83 58.5t-106 21.5q-55 0 -103 -21.5t-83 -58.5t-54.5 -86t-19.5 -106z" />
<glyph unicode="&#xa5;" d="M514 322h-377q-8 25 -8 69q0 18 2 36.5t6 35.5h377v180h-377q-8 25 -8 70q0 18 2 36.5t6 34.5h295l-377 664q27 4 58.5 6t60.5 2t59.5 -2t55.5 -6l336 -619l329 619q27 4 54.5 6t56.5 2t57.5 -2t53.5 -6l-371 -664h311q6 -29 6 -65q0 -45 -6 -76h-393v-180h393 q6 -29 6 -66q0 -45 -6 -75h-393v-322q-25 -4 -51.5 -6t-53.5 -2t-53 2t-51 6v322z" />
<glyph unicode="&#xa6;" horiz-adv-x="681" d="M242 1589q23 4 48 6t52 2q25 0 50.5 -2t47.5 -6v-682q-41 -8 -98 -8q-27 0 -52.5 2t-47.5 6v682zM242 338q23 4 48 6t52 2q25 0 50.5 -2t47.5 -6v-682q-23 -4 -47 -6t-51 -2t-52.5 2t-47.5 6v682z" />
<glyph unicode="&#xa7;" horiz-adv-x="1150" d="M141 29q14 90 52 159q55 -23 126.5 -40t153.5 -17q137 0 213 37t76 106q0 59 -48 87t-120 51q-137 43 -226 76.5t-140.5 68.5t-72 78t-20.5 104q0 68 34 131.5t83 116.5q-31 31 -49.5 75t-18.5 101q0 70 32 127.5t88 97t136 61t178 21.5q102 0 177 -15t151 -40 q0 -41 -14 -82t-35 -78q-53 23 -115.5 39.5t-144.5 16.5q-119 0 -183.5 -34t-64.5 -103q0 -66 43 -91.5t115 -48.5l254 -78q213 -66 213 -241q0 -80 -34 -143.5t-83 -118.5q33 -31 51.5 -73t18.5 -101q0 -72 -35 -128.5t-98.5 -96.5t-152.5 -60.5t-198 -20.5 q-96 0 -182 14.5t-160 41.5zM694 553q10 -4 24 -8l32 -10q23 20 49 59t26 92q0 43 -29.5 75t-95.5 52l-145 45q-45 14 -87 24.5t-73 26.5q-25 -23 -49 -59.5t-24 -83.5q0 -51 32.5 -83t102.5 -54z" />
<glyph unicode="&#xa8;" horiz-adv-x="1024" d="M199 1237q-4 27 -6.5 51.5t-2.5 50.5q0 25 2.5 50.5t6.5 52.5q25 4 52.5 6t51.5 2q23 0 50.5 -2t54.5 -6q8 -47 8 -103q0 -25 -2 -50t-6 -52q-53 -6 -105 -6q-23 0 -51 1t-53 5zM616 1237q-8 47 -8 102q0 25 2 50.5t6 52.5q25 4 52.5 6t50.5 2q25 0 52.5 -2t53.5 -6 q6 -53 6 -103q0 -51 -6 -102q-53 -6 -104 -6q-23 0 -51.5 1t-53.5 5z" />
<glyph unicode="&#xa9;" horiz-adv-x="1732" d="M1073 487q16 -29 26.5 -62.5t16.5 -74.5q-96 -43 -221 -43q-94 0 -168 32t-125 89t-77.5 135t-26.5 170t27.5 172t77.5 138.5t123 92t165 33.5q74 0 118 -8t93 -24q-2 -37 -9.5 -73t-23.5 -69q-45 14 -81 19.5t-81 5.5q-117 0 -177 -77t-60 -210q0 -137 64.5 -207.5 t176.5 -70.5q43 0 82 7t80 25zM866 106q143 0 256 49.5t192 134.5t121 199.5t42 245.5t-42 246t-121 200t-191.5 134t-256.5 49q-143 0 -255.5 -49t-191.5 -134t-121 -200t-42 -246t42 -245.5t121 -199.5t191.5 -134.5t255.5 -49.5zM866 -27q-170 0 -310 58.5t-239.5 160 t-155 240.5t-55.5 303q0 162 55.5 302.5t155 241.5t239.5 159.5t310 58.5t310.5 -57.5t240 -159.5t154.5 -241.5t55 -303.5t-55 -303t-154.5 -240.5t-240 -160t-310.5 -58.5z" />
<glyph unicode="&#xaa;" horiz-adv-x="1024" d="M629 1008q-23 4 -55.5 6t-61.5 2q-104 0 -162.5 -35t-58.5 -107q0 -43 19.5 -68.5t48 -38.5t63.5 -17.5t65 -4.5q76 0 142 13v250zM629 1167q0 90 -49.5 124t-145.5 34q-53 0 -104 -8t-99 -23q-16 29 -25 66t-9 72q55 16 124.5 26t135.5 10q168 0 255 -73.5t87 -233.5 v-512q-57 -14 -143.5 -27.5t-172.5 -13.5q-174 0 -265 61.5t-91 202.5q0 72 29.5 124.5t79 86t115 50t138.5 16.5q41 0 76 -2t64 -6v26z" />
<glyph unicode="&#xab;" horiz-adv-x="1265" d="M616 547l340 452q25 4 50.5 6.5t52.5 2.5q29 0 57.5 -2t56.5 -7l-333 -450l333 -457q-29 -4 -56.5 -6t-55.5 -2q-57 0 -105 8zM100 547l340 452q25 4 50.5 6.5t52.5 2.5q29 0 57.5 -2t56.5 -7l-333 -450l333 -457q-29 -4 -56.5 -6t-55.5 -2q-57 0 -105 8z" />
<glyph unicode="&#xac;" d="M1040 791v-572q-18 -4 -43.5 -6t-48.5 -2t-49.5 2t-46.5 6v383h-666q-4 18 -6 44t-2 48q0 23 2 49.5t6 47.5h854z" />
<glyph unicode="&#xad;" horiz-adv-x="739" d="M635 668q4 -20 6 -46t2 -49t-2 -48t-6 -44h-531q-4 18 -6 44t-2 48q0 23 2 48.5t6 46.5h531z" />
<glyph unicode="&#xae;" horiz-adv-x="1732" d="M612 1143q53 6 103.5 10t109.5 4q74 0 135.5 -14.5t105.5 -43t69.5 -75.5t25.5 -111q0 -92 -45 -148t-98 -83l215 -326q-29 -4 -52.5 -5t-45.5 -1q-43 0 -80 6l-234 365l41 18q49 23 93 61t44 97t-43 92t-112 33q-16 0 -34.5 -1t-41.5 -5v-662q-31 -6 -76 -6q-43 0 -80 6 v789zM864 106q143 0 256 49.5t192 133.5t121 198.5t42 247.5q0 131 -42 246t-121 199t-191.5 133t-256.5 49q-141 0 -254.5 -49t-191.5 -133t-120 -199t-42 -246q0 -133 42 -247.5t120 -198.5t191.5 -133.5t254.5 -49.5zM864 -27q-170 0 -310 58.5t-239.5 160t-155 240.5 t-55.5 303q0 162 55.5 302.5t155 241.5t239.5 159.5t310 58.5t310.5 -57.5t239.5 -159.5t154.5 -241.5t55.5 -303.5t-55.5 -303t-154.5 -240.5t-239.5 -160t-310.5 -58.5z" />
<glyph unicode="&#xaf;" horiz-adv-x="1024" d="M788 1421q4 -16 6.5 -36.5t2.5 -38.5t-2 -39t-7 -37h-552q-4 16 -6.5 36.5t-2.5 39.5q0 16 2 37.5t7 37.5h552z" />
<glyph unicode="&#xb0;" horiz-adv-x="757" d="M82 1188q0 63 23.5 117.5t64.5 94.5t95 63.5t116 23.5q61 0 116.5 -23.5t96.5 -63.5t64.5 -94.5t23.5 -117.5q0 -61 -23.5 -115.5t-64.5 -94.5t-96.5 -63.5t-116.5 -23.5t-115.5 23.5t-95.5 63.5t-64.5 94.5t-23.5 115.5zM229 1188q0 -70 43 -115t109 -45t111 45t45 115 t-45.5 116t-110.5 46q-66 0 -109 -46t-43 -116z" />
<glyph unicode="&#xb1;" d="M524 629h-340q-8 41 -8 92q0 49 8 90h340v373q23 4 44.5 6t45.5 2q23 0 45.5 -2t47.5 -6v-373h337q4 -23 6.5 -45.5t2.5 -44.5q0 -23 -2 -46.5t-7 -45.5h-337v-371q-25 -4 -47.5 -6t-45.5 -2q-51 0 -90 8v371zM1049 188q4 -20 6 -46t2 -48q0 -23 -2 -48.5t-6 -43.5h-869 q-4 18 -5 43.5t-1 48.5t1 48.5t5 45.5h869z" />
<glyph unicode="&#xb2;" horiz-adv-x="921" d="M465 774h313q2 -16 3 -34.5t1 -39.5q0 -20 -1 -38.5t-3 -34.5h-633l-10 24l139 145q74 75 135.5 145.5t101.5 134t40 114.5q0 66 -49 89.5t-121 23.5q-61 0 -100 -10.5t-74 -24.5q-10 27 -21.5 64.5t-17.5 80.5q63 23 118.5 34t123.5 11q145 0 233 -65.5t88 -188.5 q0 -92 -47 -175t-139 -175z" />
<glyph unicode="&#xb3;" horiz-adv-x="921" d="M739 1448l17 -31l-201 -291q55 -6 97 -29.5t70 -55t42 -70.5t14 -76q0 -70 -28.5 -124t-78.5 -92t-120 -57.5t-150 -19.5q-37 0 -66.5 2t-57 6t-55 10.5t-62.5 16.5q4 37 15 74t26 65q53 -16 100 -25.5t94 -9.5q84 0 144.5 36t60.5 114q0 66 -53 96.5t-121 30.5 q-20 0 -38.5 -1t-41.5 -7l-22 24l178 273h-287q-6 37 -6 69q0 35 6 72h524z" />
<glyph unicode="&#xb4;" horiz-adv-x="1024" d="M469 1217q-23 -4 -49.5 -6.5t-59.5 -2.5q-23 0 -46 2t-48 7l236 260q31 4 63.5 6t67.5 2q37 0 67.5 -2t59.5 -6z" />
<glyph unicode="&#xb5;" horiz-adv-x="1234" d="M164 1051q23 4 50.5 6t49.5 2q23 0 50.5 -2t50.5 -6v-549q0 -180 60 -267.5t191 -87.5q51 0 98.5 17.5t84.5 52.5t58.5 90t21.5 133v611q23 4 50 6t50 2t50.5 -2t49.5 -6v-1051q-16 -4 -35.5 -6t-39.5 -2t-42 2t-42 6l-14.5 63.5t-12.5 67.5q-49 -68 -122 -112t-187 -44 q-139 0 -222 93v-551q-23 -4 -50 -6.5t-50 -2.5t-49.5 2.5t-48.5 6.5v1534z" />
<glyph unicode="&#xb6;" horiz-adv-x="1169" d="M584 641h-25q-96 0 -179 22.5t-144.5 71.5t-97.5 125t-36 180q0 121 37 206t115 138.5t197.5 77t283.5 23.5v-1497q-102 0 -151 12v641zM891 1485q102 0 151 -12v-1473q-49 -12 -151 -12v1497z" />
<glyph unicode="&#xb7;" horiz-adv-x="493" d="M135 453q-4 29 -6 55.5t-2 54.5q0 29 2 56.5t6 56.5q29 4 55.5 6t55.5 2t56.5 -2t55.5 -6q4 -29 6.5 -55.5t2.5 -55.5t-2.5 -56.5t-6.5 -55.5q-29 -4 -55.5 -6.5t-54.5 -2.5q-29 0 -56.5 2.5t-56.5 6.5z" />
<glyph unicode="&#xb8;" horiz-adv-x="1024" d="M489 -119q20 4 48 4q98 0 151 -49t53 -127q0 -100 -80.5 -151.5t-216.5 -51.5q-29 0 -71.5 3.5t-83.5 19.5q2 29 7 61.5t21 57.5q61 -20 127 -21q66 0 104 19.5t38 62.5q0 41 -37 56.5t-96 15.5q-29 0 -58.5 -4t-56.5 -10l-12 10l100 272h131z" />
<glyph unicode="&#xb9;" horiz-adv-x="921" d="M229 1163q-27 27 -42 59.5t-25 71.5l395 162h35v-684h190q8 -35 9 -72q0 -39 -9 -73h-559q-6 18 -8 34.5t-2 38.5q0 18 2 36t8 36h197v469z" />
<glyph unicode="&#xba;" horiz-adv-x="1024" d="M711 1040q0 133 -48.5 209t-150.5 76q-100 0 -149.5 -75.5t-49.5 -209.5q0 -133 49.5 -209.5t149.5 -76.5q102 0 150.5 76.5t48.5 209.5zM133 1040q0 88 23.5 166t71.5 137.5t119 94.5t165 35t166 -35t119 -94.5t70.5 -137.5t23.5 -166t-23.5 -166.5t-70.5 -139 t-119 -95.5t-166 -35t-165 35t-119 95.5t-71.5 139t-23.5 166.5z" />
<glyph unicode="&#xbb;" horiz-adv-x="1263" d="M1161 545l-342 -453q-25 -4 -49.5 -7t-52.5 -3q-29 0 -57.5 3t-57.5 7l336 451l-336 456q29 4 56.5 6.5t56.5 2.5q27 0 53.5 -2t50.5 -7zM647 545l-342 -453q-25 -4 -49.5 -7t-52.5 -3q-29 0 -57.5 3t-57.5 7l336 451l-336 456q29 4 56.5 6.5t56.5 2.5q27 0 53.5 -2 t50.5 -7z" />
<glyph unicode="&#xbc;" horiz-adv-x="2150" d="M1505 1450q25 4 50.5 6t50.5 2q27 0 54.5 -2t51.5 -6l-989 -1448q-29 -4 -53.5 -6t-48.5 -2q-57 0 -105 8zM200 1163q-27 27 -42 59.5t-25 71.5l395 162h35v-684h190q8 -35 9 -72q0 -39 -9 -73h-559q-6 18 -8 34.5t-2 38.5q0 18 2 36t8 36h197v469zM1526 305h201v162 q37 6 79 6q41 0 82 -6v-162h99q4 -16 6 -34.5t2 -41.5q0 -45 -8 -70h-99v-157q-41 -6 -77 -6q-45 0 -84 6v157h-426l-17 27l336 666q82 -10 150 -50z" />
<glyph unicode="&#xbd;" horiz-adv-x="2150" d="M1470 1450q25 4 50.5 6t50.5 2q27 0 54.5 -2t51.5 -6l-989 -1448q-29 -4 -53.5 -6t-48.5 -2q-57 0 -105 8zM194 1163q-27 27 -42 59.5t-25 71.5l395 162h35v-684h190q8 -35 9 -72q0 -39 -9 -73h-559q-6 18 -8 34.5t-2 38.5q0 18 2 36t8 36h197v469zM1682 149h313 q2 -16 3 -34.5t1 -39.5q0 -20 -1 -38.5t-3 -34.5h-633l-10 24l139 145q74 75 135.5 145.5t101.5 134t40 114.5q0 66 -49 89.5t-121 23.5q-61 0 -100 -10.5t-74 -24.5q-10 27 -21.5 64.5t-17.5 80.5q63 23 118.5 34t123.5 11q145 0 233 -65.5t88 -188.5q0 -92 -47 -175 t-139 -175z" />
<glyph unicode="&#xbe;" horiz-adv-x="2150" d="M1517 1450q25 4 50.5 6t50.5 2q27 0 54.5 -2t51.5 -6l-989 -1448q-29 -4 -53.5 -6t-48.5 -2q-57 0 -105 8zM1544 322h201v162q37 6 79 6q41 0 82 -6v-162h99q4 -16 6 -34.5t2 -41.5q0 -45 -8 -70h-99v-157q-41 -6 -77 -6q-45 0 -84 6v157h-426l-17 27l336 666 q82 -10 150 -50zM753 1448l17 -31l-201 -291q55 -6 97 -29.5t70 -55t42 -70.5t14 -76q0 -70 -28.5 -124t-78.5 -92t-120 -57.5t-150 -19.5q-37 0 -66.5 2t-57 6t-55 10.5t-62.5 16.5q4 37 15 74t26 65q53 -16 100 -25.5t94 -9.5q84 0 144.5 36t60.5 114q0 66 -53 96.5 t-121 30.5q-20 0 -38.5 -1t-41.5 -7l-22 24l178 273h-287q-6 37 -6 69q0 35 6 72h524z" />
<glyph unicode="&#xbf;" horiz-adv-x="999" d="M672 285q-78 -20 -139.5 -46t-104.5 -62t-65.5 -84t-22.5 -111q0 -104 78 -164t223 -60q92 0 148.5 13.5t115.5 35.5q18 -39 31.5 -80.5t19.5 -88.5q-49 -16 -91 -27.5t-82 -18t-80.5 -9.5t-88.5 -3q-242 0 -365.5 109.5t-123.5 290.5q0 104 42 178.5t98.5 125t115.5 80 t96 42.5v210q47 8 101 9q23 0 47 -2t47 -7v-331zM690 1053q4 -29 6 -56.5t2 -56.5t-2 -57.5t-6 -57.5q-29 -4 -57.5 -7t-57.5 -3t-57.5 3t-56.5 7q-4 29 -6 56.5t-2 56.5t2 57.5t6 57.5q27 4 55.5 6t56.5 2q29 0 61.5 -2t55.5 -6z" />
<glyph unicode="&#xc0;" horiz-adv-x="1263" d="M905 340h-559l-100 -340q-27 -4 -53.5 -6t-53.5 -2q-29 0 -56.5 2t-49.5 6l479 1473q27 4 57.5 6t63.5 2q29 0 59.5 -2t59.5 -6l477 -1473q-25 -4 -55.5 -6t-59.5 -2q-27 0 -54.5 2t-51.5 6zM401 522h449l-225 752zM274 1817q29 4 64.5 7t72.5 3t75 -3t71 -7l215 -222 q-47 -8 -105 -8q-29 0 -57.5 2t-54.5 6z" />
<glyph unicode="&#xc1;" horiz-adv-x="1263" d="M905 340h-559l-100 -340q-27 -4 -53.5 -6t-53.5 -2q-29 0 -56.5 2t-49.5 6l479 1473q27 4 57.5 6t63.5 2q29 0 59.5 -2t59.5 -6l477 -1473q-25 -4 -55.5 -6t-59.5 -2q-27 0 -54.5 2t-51.5 6zM401 522h449l-225 752zM680 1595q-27 -4 -55.5 -6t-56.5 -2q-29 0 -53.5 2 t-53.5 6l217 222q33 4 70 7t74 3q39 0 73.5 -3t63.5 -7z" />
<glyph unicode="&#xc2;" horiz-adv-x="1263" d="M905 340h-559l-100 -340q-27 -4 -53.5 -6t-53.5 -2q-29 0 -56.5 2t-49.5 6l479 1473q27 4 57.5 6t63.5 2q29 0 59.5 -2t59.5 -6l477 -1473q-25 -4 -55.5 -6t-59.5 -2q-27 0 -54.5 2t-51.5 6zM401 522h449l-225 752zM985 1595q-18 -4 -40.5 -6t-43.5 -2h-45q-23 0 -50.5 2 t-43.5 6l-133 125l-133 -125q-18 -4 -47 -6t-49 -2h-48q-20 0 -41.5 2t-41.5 6l241 222q23 4 53.5 6t65.5 2t64.5 -2t56.5 -6z" />
<glyph unicode="&#xc3;" horiz-adv-x="1263" d="M905 340h-559l-100 -340q-27 -4 -53.5 -6t-53.5 -2q-29 0 -56.5 2t-49.5 6l479 1473q27 4 57.5 6t63.5 2q29 0 59.5 -2t59.5 -6l477 -1473q-25 -4 -55.5 -6t-59.5 -2q-27 0 -54.5 2t-51.5 6zM401 522h449l-225 752zM262 1759q33 37 86.5 71t120.5 34q43 0 86 -16.5 t84 -35.5l81 -34q40 -16 81 -17q39 0 68.5 15.5t70.5 54.5q47 -57 68 -121q-35 -35 -87.5 -66.5t-117.5 -31.5q-45 0 -88 15t-84 34.5t-81 35t-79 15.5q-43 0 -72.5 -17.5t-68.5 -52.5q-23 29 -41.5 56.5t-26.5 60.5z" />
<glyph unicode="&#xc4;" horiz-adv-x="1263" d="M905 340h-559l-100 -340q-27 -4 -53.5 -6t-53.5 -2q-29 0 -56.5 2t-49.5 6l479 1473q27 4 57.5 6t63.5 2q29 0 59.5 -2t59.5 -6l477 -1473q-25 -4 -55.5 -6t-59.5 -2q-27 0 -54.5 2t-51.5 6zM401 522h449l-225 752zM301 1616q-6 51 -6 102t6 105q29 4 55.5 6t51.5 2 q27 0 55.5 -2t52.5 -6q8 -47 9 -103q0 -57 -9 -104q-25 -4 -52.5 -6t-53.5 -2q-25 0 -52.5 2t-56.5 6zM742 1616l-7.5 51.5t-3.5 50.5q0 47 11 105q25 4 52.5 6t53.5 2q25 0 52.5 -2t56.5 -6q6 -53 6 -103q0 -53 -6 -104q-29 -4 -55.5 -6t-53.5 -2q-25 0 -53 2t-53 6z" />
<glyph unicode="&#xc5;" horiz-adv-x="1263" d="M387 1677q0 104 67.5 172t176.5 68q106 0 174.5 -67.5t68.5 -172.5q0 -72 -33.5 -126t-90.5 -83l479 -1468q-25 -4 -55.5 -6t-59.5 -2q-27 0 -54.5 2t-51.5 6l-105 340h-555l-102 -340q-27 -4 -53.5 -6t-53.5 -2q-29 0 -56.5 2t-49.5 6l479 1468q-57 29 -91 83t-34 126z M850 522l-225 744l-224 -744h449zM631 1544q53 0 81.5 37t28.5 96t-28.5 96t-81.5 37t-83 -36.5t-30 -96.5q0 -59 30 -96t83 -37z" />
<glyph unicode="&#xc6;" horiz-adv-x="1888" d="M223 0q-29 -4 -58.5 -6t-58.5 -2q-33 0 -62.5 2t-53.5 6l864 1473h924q4 -23 6 -45.5t2 -45.5t-2 -48t-6 -46h-600v-444h481q6 -41 6 -90q0 -23 -1 -47.5t-5 -44.5h-481v-480h616q4 -20 6 -43.5t2 -46.5t-2 -47.5t-6 -44.5h-825v344h-551zM969 1305h-11l-442 -781h453 v781z" />
<glyph unicode="&#xc7;" horiz-adv-x="1265" d="M1120 215q20 -43 34.5 -85t23.5 -87q-162 -66 -351 -66h-34l-35 -88q10 2 19 3.5t20 1.5q113 0 165 -53.5t52 -129.5q0 -100 -80 -152.5t-219 -52.5q-31 0 -76 4.5t-88 20.5q2 31 7 63.5t24 59.5q72 -23 129 -23q143 0 143 80q0 39 -35 54.5t-96 15.5q-29 0 -57.5 -3 t-59.5 -14l-16 19l40 101l38 104q-129 20 -230.5 80.5t-172 154.5t-108.5 221t-38 281q0 176 47 318.5t136 244t216 155.5t285 54q117 0 200.5 -16.5t147.5 -40.5q-4 -47 -16.5 -86t-32.5 -84q-31 10 -59.5 18t-61.5 14.5t-73 9.5t-91 3q-221 0 -347 -152.5t-126 -437.5 q0 -143 35 -249.5t99.5 -177.5t154.5 -105.5t198 -34.5q88 0 158 14t131 43z" />
<glyph unicode="&#xc8;" horiz-adv-x="1097" d="M180 1473h809q6 -41 6 -91q0 -23 -1 -47t-5 -45h-600v-422h479q4 -20 6.5 -43.5t2.5 -46.5t-2.5 -47t-6.5 -45h-479v-504h617q6 -41 6 -90q0 -23 -1 -47.5t-5 -44.5h-826v1473zM262 1817q29 4 64.5 7t72.5 3t75 -3t71 -7l215 -222q-47 -8 -105 -8q-29 0 -57.5 2t-54.5 6z " />
<glyph unicode="&#xc9;" horiz-adv-x="1097" d="M180 1473h809q6 -41 6 -91q0 -23 -1 -47t-5 -45h-600v-422h479q4 -20 6.5 -43.5t2.5 -46.5t-2.5 -47t-6.5 -45h-479v-504h617q6 -41 6 -90q0 -23 -1 -47.5t-5 -44.5h-826v1473zM614 1595q-27 -4 -55.5 -6t-56.5 -2q-29 0 -53.5 2t-53.5 6l217 222q33 4 70 7t74 3 q39 0 73.5 -3t63.5 -7z" />
<glyph unicode="&#xca;" horiz-adv-x="1097" d="M180 1473h809q6 -41 6 -91q0 -23 -1 -47t-5 -45h-600v-422h479q4 -20 6.5 -43.5t2.5 -46.5t-2.5 -47t-6.5 -45h-479v-504h617q6 -41 6 -90q0 -23 -1 -47.5t-5 -44.5h-826v1473zM940 1595q-18 -4 -40.5 -6t-43.5 -2h-45q-23 0 -50.5 2t-43.5 6l-133 125l-133 -125 q-18 -4 -47 -6t-49 -2h-48q-20 0 -41.5 2t-41.5 6l241 222q23 4 53.5 6t65.5 2t64.5 -2t56.5 -6z" />
<glyph unicode="&#xcb;" horiz-adv-x="1097" d="M180 1473h809q6 -41 6 -91q0 -23 -1 -47t-5 -45h-600v-422h479q4 -20 6.5 -43.5t2.5 -46.5t-2.5 -47t-6.5 -45h-479v-504h617q6 -41 6 -90q0 -23 -1 -47.5t-5 -44.5h-826v1473zM252 1616q-6 51 -6 102t6 105q29 4 55.5 6t51.5 2q27 0 55.5 -2t52.5 -6q8 -47 9 -103 q0 -57 -9 -104q-25 -4 -52.5 -6t-53.5 -2q-25 0 -52.5 2t-56.5 6zM693 1616l-7.5 51.5t-3.5 50.5q0 47 11 105q25 4 52.5 6t53.5 2q25 0 52.5 -2t56.5 -6q6 -53 6 -103q0 -53 -6 -104q-29 -4 -55.5 -6t-53.5 -2q-25 0 -53 2t-53 6z" />
<glyph unicode="&#xcc;" horiz-adv-x="569" d="M180 1473q25 4 51.5 6t53.5 2t53.5 -2t50.5 -6v-1473q-25 -4 -50.5 -6t-53.5 -2q-27 0 -54.5 2t-50.5 6v1473zM-43 1817q29 4 64.5 7t72.5 3t75 -3t71 -7l215 -222q-47 -8 -105 -8q-29 0 -57.5 2t-54.5 6z" />
<glyph unicode="&#xcd;" horiz-adv-x="569" d="M180 1473q25 4 51.5 6t53.5 2t53.5 -2t50.5 -6v-1473q-25 -4 -50.5 -6t-53.5 -2q-27 0 -54.5 2t-50.5 6v1473zM348 1595q-27 -4 -55.5 -6t-56.5 -2q-29 0 -53.5 2t-53.5 6l217 222q33 4 70 7t74 3q39 0 73.5 -3t63.5 -7z" />
<glyph unicode="&#xce;" horiz-adv-x="569" d="M180 1473q25 4 51.5 6t53.5 2t53.5 -2t50.5 -6v-1473q-25 -4 -50.5 -6t-53.5 -2q-27 0 -54.5 2t-50.5 6v1473zM643 1595q-18 -4 -40.5 -6t-43.5 -2h-45q-23 0 -50.5 2t-43.5 6l-133 125l-133 -125q-18 -4 -47 -6t-49 -2h-48q-20 0 -41.5 2t-41.5 6l241 222q23 4 53.5 6 t65.5 2t64.5 -2t56.5 -6z" />
<glyph unicode="&#xcf;" horiz-adv-x="569" d="M180 1473q25 4 51.5 6t53.5 2t53.5 -2t50.5 -6v-1473q-25 -4 -50.5 -6t-53.5 -2q-27 0 -54.5 2t-50.5 6v1473zM-41 1616q-6 51 -6 102t6 105q29 4 55.5 6t51.5 2q27 0 55.5 -2t52.5 -6q8 -47 9 -103q0 -57 -9 -104q-25 -4 -52.5 -6t-53.5 -2q-25 0 -52.5 2t-56.5 6z M400 1616l-7.5 51.5t-3.5 50.5q0 47 11 105q25 4 52.5 6t53.5 2q25 0 52.5 -2t56.5 -6q6 -53 6 -103q0 -53 -6 -104q-29 -4 -55.5 -6t-53.5 -2q-25 0 -53 2t-53 6z" />
<glyph unicode="&#xd0;" horiz-adv-x="1449" d="M201 678h-168q-4 16 -6 36.5t-2 39.5q0 18 2 39.5t6 37.5h168v642q70 8 168 15t192 7q387 0 578.5 -196.5t191.5 -565.5q0 -385 -195.5 -571.5t-582.5 -186.5q-96 0 -190.5 7.5t-161.5 17.5v678zM410 831h331q4 -16 6.5 -37.5t2.5 -39.5q0 -16 -2.5 -38t-6.5 -38h-331 v-506q29 -4 70.5 -7t88.5 -3q121 0 220.5 27.5t171 93t110.5 177t39 279.5q0 154 -39 262.5t-109.5 177t-169 99.5t-217.5 31q-39 0 -85 -1t-80 -8v-469z" />
<glyph unicode="&#xd1;" horiz-adv-x="1392" d="M180 1473q23 4 48.5 6t47.5 2q23 0 48.5 -2t48.5 -6l641 -1106v1106q25 4 51.5 6t52.5 2q23 0 47.5 -2t46.5 -6v-1473q-23 -4 -48 -6t-48 -2t-48.5 2t-47.5 6l-643 1100v-1100q-23 -4 -48.5 -6t-49.5 -2q-27 0 -52.5 2t-46.5 6v1473zM332 1759q33 37 86.5 71t120.5 34 q43 0 86 -16.5t84 -35.5l81 -34q40 -16 81 -17q39 0 68.5 15.5t70.5 54.5q47 -57 68 -121q-35 -35 -87.5 -66.5t-117.5 -31.5q-45 0 -88 15t-84 34.5t-81 35t-79 15.5q-43 0 -72.5 -17.5t-68.5 -52.5q-23 29 -41.5 56.5t-26.5 60.5z" />
<glyph unicode="&#xd2;" horiz-adv-x="1482" d="M744 -25q-160 0 -277 56.5t-193.5 158t-114.5 240.5t-38 305t38 305.5t114.5 240.5t193.5 158.5t277 57.5t276.5 -57.5t193 -158.5t113.5 -240.5t37 -305.5t-37 -305t-113.5 -240.5t-193 -158t-276.5 -56.5zM744 156q102 0 176.5 40t124 115.5t74 182t24.5 241.5 q0 133 -24.5 240.5t-74 182.5t-124 115t-176.5 40t-177 -40t-124.5 -115t-74 -182.5t-24.5 -240.5q0 -135 24.5 -241.5t74 -182t124.5 -115.5t177 -40zM379 1817q29 4 64.5 7t72.5 3t75 -3t71 -7l215 -222q-47 -8 -105 -8q-29 0 -57.5 2t-54.5 6z" />
<glyph unicode="&#xd3;" horiz-adv-x="1482" d="M744 -25q-160 0 -277 56.5t-193.5 158t-114.5 240.5t-38 305t38 305.5t114.5 240.5t193.5 158.5t277 57.5t276.5 -57.5t193 -158.5t113.5 -240.5t37 -305.5t-37 -305t-113.5 -240.5t-193 -158t-276.5 -56.5zM744 156q102 0 176.5 40t124 115.5t74 182t24.5 241.5 q0 133 -24.5 240.5t-74 182.5t-124 115t-176.5 40t-177 -40t-124.5 -115t-74 -182.5t-24.5 -240.5q0 -135 24.5 -241.5t74 -182t124.5 -115.5t177 -40zM792 1595q-27 -4 -55.5 -6t-56.5 -2q-29 0 -53.5 2t-53.5 6l217 222q33 4 70 7t74 3q39 0 73.5 -3t63.5 -7z" />
<glyph unicode="&#xd4;" horiz-adv-x="1482" d="M744 -25q-160 0 -277 56.5t-193.5 158t-114.5 240.5t-38 305t38 305.5t114.5 240.5t193.5 158.5t277 57.5t276.5 -57.5t193 -158.5t113.5 -240.5t37 -305.5t-37 -305t-113.5 -240.5t-193 -158t-276.5 -56.5zM744 156q102 0 176.5 40t124 115.5t74 182t24.5 241.5 q0 133 -24.5 240.5t-74 182.5t-124 115t-176.5 40t-177 -40t-124.5 -115t-74 -182.5t-24.5 -240.5q0 -135 24.5 -241.5t74 -182t124.5 -115.5t177 -40zM1095 1595q-18 -4 -40.5 -6t-43.5 -2h-45q-23 0 -50.5 2t-43.5 6l-133 125l-133 -125q-18 -4 -47 -6t-49 -2h-48 q-20 0 -41.5 2t-41.5 6l241 222q23 4 53.5 6t65.5 2t64.5 -2t56.5 -6z" />
<glyph unicode="&#xd5;" horiz-adv-x="1482" d="M744 -25q-160 0 -277 56.5t-193.5 158t-114.5 240.5t-38 305t38 305.5t114.5 240.5t193.5 158.5t277 57.5t276.5 -57.5t193 -158.5t113.5 -240.5t37 -305.5t-37 -305t-113.5 -240.5t-193 -158t-276.5 -56.5zM744 156q102 0 176.5 40t124 115.5t74 182t24.5 241.5 q0 133 -24.5 240.5t-74 182.5t-124 115t-176.5 40t-177 -40t-124.5 -115t-74 -182.5t-24.5 -240.5q0 -135 24.5 -241.5t74 -182t124.5 -115.5t177 -40zM379 1759q33 37 86.5 71t120.5 34q43 0 86 -16.5t84 -35.5l81 -34q40 -16 81 -17q39 0 68.5 15.5t70.5 54.5 q47 -57 68 -121q-35 -35 -87.5 -66.5t-117.5 -31.5q-45 0 -88 15t-84 34.5t-81 35t-79 15.5q-43 0 -72.5 -17.5t-68.5 -52.5q-23 29 -41.5 56.5t-26.5 60.5z" />
<glyph unicode="&#xd6;" horiz-adv-x="1482" d="M744 -25q-160 0 -277 56.5t-193.5 158t-114.5 240.5t-38 305t38 305.5t114.5 240.5t193.5 158.5t277 57.5t276.5 -57.5t193 -158.5t113.5 -240.5t37 -305.5t-37 -305t-113.5 -240.5t-193 -158t-276.5 -56.5zM744 156q102 0 176.5 40t124 115.5t74 182t24.5 241.5 q0 133 -24.5 240.5t-74 182.5t-124 115t-176.5 40t-177 -40t-124.5 -115t-74 -182.5t-24.5 -240.5q0 -135 24.5 -241.5t74 -182t124.5 -115.5t177 -40zM411 1616q-6 51 -6 102t6 105q29 4 55.5 6t51.5 2q27 0 55.5 -2t52.5 -6q8 -47 9 -103q0 -57 -9 -104q-25 -4 -52.5 -6 t-53.5 -2q-25 0 -52.5 2t-56.5 6zM852 1616l-7.5 51.5t-3.5 50.5q0 47 11 105q25 4 52.5 6t53.5 2q25 0 52.5 -2t56.5 -6q6 -53 6 -103q0 -53 -6 -104q-29 -4 -55.5 -6t-53.5 -2q-25 0 -53 2t-53 6z" />
<glyph unicode="&#xd7;" d="M485 725l-125 124l-122 124q25 37 58.5 69.5t70.5 61.5l247 -250l123 124l125 124q74 -55 129 -129l-248 -248l248 -248q-27 -37 -60.5 -70.5t-68.5 -56.5l-246 246l-251 -248q-76 51 -129 129z" />
<glyph unicode="&#xd8;" horiz-adv-x="1482" d="M741 -25q-123 0 -218 33t-169 94l-73 -102q-35 -6 -82 -6t-84 6l147 203q-72 100 -107.5 235t-35.5 297q0 166 38 305.5t114.5 240.5t193.5 158.5t276 57.5q117 0 211.5 -30.5t165.5 -90.5l70 97q16 4 35.5 6t44.5 2q27 0 47 -2t39 -6l-142 -195q76 -102 113 -239.5 t37 -303.5t-37 -305t-113.5 -240.5t-193.5 -158t-277 -56.5zM741 156q102 0 177 40t124.5 115.5t74 182t24.5 241.5q0 213 -64 359l-604 -828q100 -110 268 -110zM342 735q0 -209 55 -346l600 823q-96 100 -256 101q-102 0 -177 -40t-124 -115t-73.5 -182.5t-24.5 -240.5z " />
<glyph unicode="&#xd9;" horiz-adv-x="1380" d="M166 1473q49 6 106 6q55 0 103 -6v-836q0 -127 16.5 -217t53 -146.5t97 -83t148.5 -26.5t147.5 26.5t96.5 83t53.5 146.5t16.5 217v836q51 6 104 6q57 0 106 -6v-873q0 -147 -27.5 -264t-90 -197t-162.5 -122t-244 -42q-143 0 -243.5 42t-163 122t-90 197t-27.5 264v873z M348 1817q29 4 64.5 7t72.5 3t75 -3t71 -7l215 -222q-47 -8 -105 -8q-29 0 -57.5 2t-54.5 6z" />
<glyph unicode="&#xda;" horiz-adv-x="1380" d="M166 1473q49 6 106 6q55 0 103 -6v-836q0 -127 16.5 -217t53 -146.5t97 -83t148.5 -26.5t147.5 26.5t96.5 83t53.5 146.5t16.5 217v836q51 6 104 6q57 0 106 -6v-873q0 -147 -27.5 -264t-90 -197t-162.5 -122t-244 -42q-143 0 -243.5 42t-163 122t-90 197t-27.5 264v873z M766 1595q-27 -4 -55.5 -6t-56.5 -2q-29 0 -53.5 2t-53.5 6l217 222q33 4 70 7t74 3q39 0 73.5 -3t63.5 -7z" />
<glyph unicode="&#xdb;" horiz-adv-x="1380" d="M166 1473q49 6 106 6q55 0 103 -6v-836q0 -127 16.5 -217t53 -146.5t97 -83t148.5 -26.5t147.5 26.5t96.5 83t53.5 146.5t16.5 217v836q51 6 104 6q57 0 106 -6v-873q0 -147 -27.5 -264t-90 -197t-162.5 -122t-244 -42q-143 0 -243.5 42t-163 122t-90 197t-27.5 264v873z M1046 1595q-18 -4 -40.5 -6t-43.5 -2h-45q-23 0 -50.5 2t-43.5 6l-133 125l-133 -125q-18 -4 -47 -6t-49 -2h-48q-20 0 -41.5 2t-41.5 6l241 222q23 4 53.5 6t65.5 2t64.5 -2t56.5 -6z" />
<glyph unicode="&#xdc;" horiz-adv-x="1380" d="M166 1473q49 6 106 6q55 0 103 -6v-836q0 -127 16.5 -217t53 -146.5t97 -83t148.5 -26.5t147.5 26.5t96.5 83t53.5 146.5t16.5 217v836q51 6 104 6q57 0 106 -6v-873q0 -147 -27.5 -264t-90 -197t-162.5 -122t-244 -42q-143 0 -243.5 42t-163 122t-90 197t-27.5 264v873z M362 1616q-6 51 -6 102t6 105q29 4 55.5 6t51.5 2q27 0 55.5 -2t52.5 -6q8 -47 9 -103q0 -57 -9 -104q-25 -4 -52.5 -6t-53.5 -2q-25 0 -52.5 2t-56.5 6zM803 1616l-7.5 51.5t-3.5 50.5q0 47 11 105q25 4 52.5 6t53.5 2q25 0 52.5 -2t56.5 -6q6 -53 6 -103q0 -53 -6 -104 q-29 -4 -55.5 -6t-53.5 -2q-25 0 -53 2t-53 6z" />
<glyph unicode="&#xdd;" horiz-adv-x="1212" d="M504 539l-467 934q27 4 57.5 6t61.5 2q27 0 58.5 -2t55.5 -6l344 -732l340 732q27 4 53.5 6t55.5 2t57.5 -2t55.5 -6l-461 -934v-539q-27 -4 -53.5 -6t-53.5 -2t-54.5 2t-49.5 6v539zM686 1595q-27 -4 -55.5 -6t-56.5 -2q-29 0 -53.5 2t-53.5 6l217 222q33 4 70 7t74 3 q39 0 73.5 -3t63.5 -7z" />
<glyph unicode="&#xde;" horiz-adv-x="1189" d="M387 1243q35 4 64.5 5t64.5 1q106 0 207.5 -23.5t181.5 -81t128 -152.5t48 -238q0 -141 -48 -236.5t-128 -152t-181 -80t-208 -23.5q-35 0 -64.5 1t-64.5 3v-266q-25 -4 -52.5 -5t-51.5 -1q-27 0 -54.5 1t-50.5 5v1473q49 6 105 6q25 0 52 -1t52 -5v-230zM516 442 q63 0 126 12.5t112 47.5t79.5 96t30.5 158q0 96 -30.5 157.5t-79.5 95t-111.5 46t-126.5 12.5q-41 0 -64.5 -2t-64.5 -6v-608l62.5 -6.5t66.5 -2.5z" />
<glyph unicode="&#xdf;" horiz-adv-x="1171" d="M162 1010q0 119 20.5 213t68.5 160.5t127 101.5t193 35q100 0 172 -27t118 -72t67.5 -105.5t21.5 -127.5q0 -92 -28.5 -154.5t-63.5 -111.5l-63 -93q-29 -43 -29 -98q0 -43 24.5 -72.5t60.5 -54.5l78 -51q42 -27 77.5 -62.5t60.5 -87t25 -127.5q0 -133 -90.5 -217 t-268.5 -84q-78 0 -136 13.5t-112 36.5q4 41 17.5 81.5t29.5 79.5q47 -23 92.5 -34t92.5 -11q70 0 120 30t50 112q0 49 -23.5 80.5t-59.5 56t-78 49.5t-78 56.5t-59.5 76.5t-23.5 115q0 72 29 124t62.5 101t62.5 104.5t29 133.5q0 80 -46.5 127t-134.5 47q-123 0 -165 -83 t-42 -265v-1006q-23 -4 -49 -6t-49 -2t-50.5 2t-49.5 6v1010z" />
<glyph unicode="&#xe0;" horiz-adv-x="1058" d="M719 494q-31 4 -78 8t-80 4q-127 0 -193.5 -47t-66.5 -144q0 -61 22.5 -96t56.5 -53.5t75 -22.5t77 -4q47 0 97.5 5.5t89.5 15.5v334zM719 692q0 121 -61.5 168t-178.5 47q-72 0 -134 -11t-122 -30q-39 68 -39 162q70 23 154 35t162 12q205 0 311.5 -93t106.5 -298v-657 q-72 -16 -174.5 -34t-208.5 -18q-100 0 -181.5 18.5t-137.5 59.5t-87 104.5t-31 153.5q0 88 36 154.5t97.5 111t141.5 66t168 21.5q66 0 107.5 -3.5t70.5 -7.5v39zM190 1477q31 4 61.5 6t67.5 2q33 0 67 -2t64 -6l236 -260q-47 -8 -96 -9q-31 0 -58.5 2t-50.5 7z" />
<glyph unicode="&#xe1;" horiz-adv-x="1058" d="M719 494q-31 4 -78 8t-80 4q-127 0 -193.5 -47t-66.5 -144q0 -61 22.5 -96t56.5 -53.5t75 -22.5t77 -4q47 0 97.5 5.5t89.5 15.5v334zM719 692q0 121 -61.5 168t-178.5 47q-72 0 -134 -11t-122 -30q-39 68 -39 162q70 23 154 35t162 12q205 0 311.5 -93t106.5 -298v-657 q-72 -16 -174.5 -34t-208.5 -18q-100 0 -181.5 18.5t-137.5 59.5t-87 104.5t-31 153.5q0 88 36 154.5t97.5 111t141.5 66t168 21.5q66 0 107.5 -3.5t70.5 -7.5v39zM528 1217q-23 -4 -49.5 -6.5t-59.5 -2.5q-23 0 -46 2t-48 7l236 260q31 4 63.5 6t67.5 2q37 0 67.5 -2 t59.5 -6z" />
<glyph unicode="&#xe2;" horiz-adv-x="1058" d="M719 494q-31 4 -78 8t-80 4q-127 0 -193.5 -47t-66.5 -144q0 -61 22.5 -96t56.5 -53.5t75 -22.5t77 -4q47 0 97.5 5.5t89.5 15.5v334zM719 692q0 121 -61.5 168t-178.5 47q-72 0 -134 -11t-122 -30q-39 68 -39 162q70 23 154 35t162 12q205 0 311.5 -93t106.5 -298v-657 q-72 -16 -174.5 -34t-208.5 -18q-100 0 -181.5 18.5t-137.5 59.5t-87 104.5t-31 153.5q0 88 36 154.5t97.5 111t141.5 66t168 21.5q66 0 107.5 -3.5t70.5 -7.5v39zM854 1217q-18 -4 -42 -6.5t-50 -2.5q-27 0 -58.5 2t-58.5 7l-133 163l-133 -163q-23 -4 -52.5 -6.5 t-56.5 -2.5q-59 0 -100 9l223 260q27 4 60.5 6t64.5 2q23 0 54.5 -2t60.5 -8z" />
<glyph unicode="&#xe3;" horiz-adv-x="1058" d="M719 494q-31 4 -78 8t-80 4q-127 0 -193.5 -47t-66.5 -144q0 -61 22.5 -96t56.5 -53.5t75 -22.5t77 -4q47 0 97.5 5.5t89.5 15.5v334zM719 692q0 121 -61.5 168t-178.5 47q-72 0 -134 -11t-122 -30q-39 68 -39 162q70 23 154 35t162 12q205 0 311.5 -93t106.5 -298v-657 q-72 -16 -174.5 -34t-208.5 -18q-100 0 -181.5 18.5t-137.5 59.5t-87 104.5t-31 153.5q0 88 36 154.5t97.5 111t141.5 66t168 21.5q66 0 107.5 -3.5t70.5 -7.5v39zM174 1368q31 41 80 70.5t116 29.5q43 0 82 -14t75 -30.5t73 -31t78 -14.5q35 0 64.5 12.5t72.5 51.5 q45 -55 65 -125q-33 -39 -83 -67.5t-115 -28.5q-43 0 -82 14t-76 30.5t-73 31t-75 14.5q-41 0 -69.5 -14.5t-69.5 -49.5q-23 29 -39 58.5t-24 62.5z" />
<glyph unicode="&#xe4;" horiz-adv-x="1058" d="M719 494q-31 4 -78 8t-80 4q-127 0 -193.5 -47t-66.5 -144q0 -61 22.5 -96t56.5 -53.5t75 -22.5t77 -4q47 0 97.5 5.5t89.5 15.5v334zM719 692q0 121 -61.5 168t-178.5 47q-72 0 -134 -11t-122 -30q-39 68 -39 162q70 23 154 35t162 12q205 0 311.5 -93t106.5 -298v-657 q-72 -16 -174.5 -34t-208.5 -18q-100 0 -181.5 18.5t-137.5 59.5t-87 104.5t-31 153.5q0 88 36 154.5t97.5 111t141.5 66t168 21.5q66 0 107.5 -3.5t70.5 -7.5v39zM224 1237q-4 27 -6.5 51.5t-2.5 50.5q0 25 2.5 50.5t6.5 52.5q25 4 52.5 6t51.5 2q23 0 50.5 -2t54.5 -6 q8 -47 8 -103q0 -25 -2 -50t-6 -52q-53 -6 -105 -6q-23 0 -51 1t-53 5zM641 1237q-8 47 -8 102q0 25 2 50.5t6 52.5q25 4 52.5 6t50.5 2q25 0 52.5 -2t53.5 -6q6 -53 6 -103q0 -51 -6 -102q-53 -6 -104 -6q-23 0 -51.5 1t-53.5 5z" />
<glyph unicode="&#xe5;" horiz-adv-x="1058" d="M719 494q-31 4 -78 8t-80 4q-127 0 -193.5 -47t-66.5 -144q0 -61 22.5 -96t56.5 -53.5t75 -22.5t77 -4q47 0 97.5 5.5t89.5 15.5v334zM719 692q0 121 -61.5 168t-178.5 47q-72 0 -134 -11t-122 -30q-39 68 -39 162q70 23 154 35t162 12q205 0 311.5 -93t106.5 -298v-657 q-72 -16 -174.5 -34t-208.5 -18q-100 0 -181.5 18.5t-137.5 59.5t-87 104.5t-31 153.5q0 88 36 154.5t97.5 111t141.5 66t168 21.5q66 0 107.5 -3.5t70.5 -7.5v39zM320 1419q0 98 61.5 158.5t159.5 60.5t159.5 -60t61.5 -159q0 -98 -61.5 -158.5t-159.5 -60.5t-159.5 60.5 t-61.5 158.5zM541 1305q49 0 75.5 30.5t26.5 83.5t-26.5 84t-75.5 31t-74.5 -30.5t-25.5 -84.5q0 -53 25.5 -83.5t74.5 -30.5z" />
<glyph unicode="&#xe6;" horiz-adv-x="1718" d="M709 692q0 121 -59.5 168t-176.5 47q-70 0 -134.5 -11t-121.5 -30q-39 68 -39 162q70 23 153 35t163 12q123 0 205.5 -40t138.5 -124q57 74 143 119t201 45q106 0 187 -37t136.5 -101.5t83 -153.5t27.5 -193q0 -27 -2 -58.5t-6 -54.5h-703q0 -180 84 -257t256 -77 q74 0 138.5 13.5t129.5 38.5q14 -31 24.5 -75t12.5 -87q-139 -57 -323 -58q-106 0 -198.5 24t-160.5 77q-66 -41 -163 -71t-209 -30q-88 0 -163 18.5t-128 59.5t-84 104.5t-31 153.5q0 88 36 153.5t97.5 108.5t141 64.5t170.5 21.5q53 0 96 -3t78 -7v43zM705 487 q-31 4 -70 7.5t-74 3.5q-129 0 -197.5 -44t-68.5 -145q0 -59 22.5 -94t55.5 -52.5t70.5 -22.5t70.5 -5q66 0 133.5 14.5t116.5 49.5q-29 49 -42 115.5t-15 134.5zM1419 629q0 57 -14 109.5t-44 91t-75 61t-106 22.5q-127 0 -192.5 -74.5t-80.5 -209.5h512z" />
<glyph unicode="&#xe7;" horiz-adv-x="978" d="M864 180q16 -29 28.5 -71.5t14.5 -88.5q-66 -23 -136.5 -34t-156.5 -11l-36 -92q10 2 36 2q106 0 160.5 -49t54.5 -125q0 -102 -80.5 -153.5t-216.5 -51.5q-29 0 -71.5 4.5t-83.5 20.5q2 29 7 60.5t22 58.5q68 -23 126 -23q63 0 102.5 21.5t39.5 60.5q0 41 -37 57.5 t-98 16.5q-29 0 -57.5 -4t-55.5 -10q-4 2 -12 10l78 209q-195 37 -291.5 177t-96.5 359q0 117 32 217.5t96.5 174t159.5 116.5t222 43q84 0 152 -11t127 -34q0 -35 -9.5 -80t-25.5 -80q-51 16 -106.5 25.5t-120.5 9.5q-160 0 -240 -103.5t-80 -277.5q0 -197 91.5 -289 t242.5 -92q61 0 112.5 8.5t106.5 28.5z" />
<glyph unicode="&#xe8;" horiz-adv-x="1140" d="M317 475q4 -172 89 -252t251 -80q145 0 277 52q16 -31 26.5 -75t12.5 -87q-68 -29 -149 -43.5t-179 -14.5q-143 0 -245.5 40t-169 113t-97.5 172t-31 218q0 117 30 218.5t91.5 176t154.5 118.5t220 44q109 0 190.5 -37t137 -101.5t84 -153.5t28.5 -193q0 -29 -2 -60.5 t-4 -54.5h-715zM838 627q0 57 -15.5 109t-45.5 91t-76 62.5t-109 23.5q-125 0 -191.5 -75.5t-81.5 -210.5h519zM272 1477q31 4 61.5 6t67.5 2q33 0 67 -2t64 -6l236 -260q-47 -8 -96 -9q-31 0 -58.5 2t-50.5 7z" />
<glyph unicode="&#xe9;" horiz-adv-x="1140" d="M317 475q4 -172 89 -252t251 -80q145 0 277 52q16 -31 26.5 -75t12.5 -87q-68 -29 -149 -43.5t-179 -14.5q-143 0 -245.5 40t-169 113t-97.5 172t-31 218q0 117 30 218.5t91.5 176t154.5 118.5t220 44q109 0 190.5 -37t137 -101.5t84 -153.5t28.5 -193q0 -29 -2 -60.5 t-4 -54.5h-715zM838 627q0 57 -15.5 109t-45.5 91t-76 62.5t-109 23.5q-125 0 -191.5 -75.5t-81.5 -210.5h519zM616 1217q-23 -4 -49.5 -6.5t-59.5 -2.5q-23 0 -46 2t-48 7l236 260q31 4 63.5 6t67.5 2q37 0 67.5 -2t59.5 -6z" />
<glyph unicode="&#xea;" horiz-adv-x="1140" d="M317 475q4 -172 89 -252t251 -80q145 0 277 52q16 -31 26.5 -75t12.5 -87q-68 -29 -149 -43.5t-179 -14.5q-143 0 -245.5 40t-169 113t-97.5 172t-31 218q0 117 30 218.5t91.5 176t154.5 118.5t220 44q109 0 190.5 -37t137 -101.5t84 -153.5t28.5 -193q0 -29 -2 -60.5 t-4 -54.5h-715zM838 627q0 57 -15.5 109t-45.5 91t-76 62.5t-109 23.5q-125 0 -191.5 -75.5t-81.5 -210.5h519zM928 1217q-18 -4 -42 -6.5t-50 -2.5q-27 0 -58.5 2t-58.5 7l-133 163l-133 -163q-23 -4 -52.5 -6.5t-56.5 -2.5q-59 0 -100 9l223 260q27 4 60.5 6t64.5 2 q23 0 54.5 -2t60.5 -8z" />
<glyph unicode="&#xeb;" horiz-adv-x="1140" d="M317 475q4 -172 89 -252t251 -80q145 0 277 52q16 -31 26.5 -75t12.5 -87q-68 -29 -149 -43.5t-179 -14.5q-143 0 -245.5 40t-169 113t-97.5 172t-31 218q0 117 30 218.5t91.5 176t154.5 118.5t220 44q109 0 190.5 -37t137 -101.5t84 -153.5t28.5 -193q0 -29 -2 -60.5 t-4 -54.5h-715zM838 627q0 57 -15.5 109t-45.5 91t-76 62.5t-109 23.5q-125 0 -191.5 -75.5t-81.5 -210.5h519zM265 1237q-4 27 -6.5 51.5t-2.5 50.5q0 25 2.5 50.5t6.5 52.5q25 4 52.5 6t51.5 2q23 0 50.5 -2t54.5 -6q8 -47 8 -103q0 -25 -2 -50t-6 -52q-53 -6 -105 -6 q-23 0 -51 1t-53 5zM682 1237q-8 47 -8 102q0 25 2 50.5t6 52.5q25 4 52.5 6t50.5 2q25 0 52.5 -2t53.5 -6q6 -53 6 -103q0 -51 -6 -102q-53 -6 -104 -6q-23 0 -51.5 1t-53.5 5z" />
<glyph unicode="&#xec;" horiz-adv-x="589" d="M-29 1477q31 4 61.5 6t67.5 2q33 0 67 -2t64 -6l236 -260q-47 -8 -96 -9q-31 0 -58.5 2t-50.5 7zM225 891h-133q-4 16 -6 37.5t-2 42.5q0 20 2 41.5t6 38.5h332v-1051q-23 -4 -50.5 -6t-49.5 -2q-20 0 -48 2t-51 6v891z" />
<glyph unicode="&#xed;" horiz-adv-x="589" d="M305 1217q-23 -4 -49.5 -6.5t-59.5 -2.5q-23 0 -46 2t-48 7l236 260q31 4 63.5 6t67.5 2q37 0 67.5 -2t59.5 -6zM225 891h-133q-4 16 -6 37.5t-2 42.5q0 20 2 41.5t6 38.5h332v-1051q-23 -4 -50.5 -6t-49.5 -2q-20 0 -48 2t-51 6v891z" />
<glyph unicode="&#xee;" horiz-adv-x="589" d="M225 891h-133q-4 16 -6 37.5t-2 42.5q0 20 2 41.5t6 38.5h332v-1051q-23 -4 -50.5 -6t-49.5 -2q-20 0 -48 2t-51 6v891zM637 1217q-18 -4 -42 -6.5t-50 -2.5q-27 0 -58.5 2t-58.5 7l-133 163l-133 -163q-23 -4 -52.5 -6.5t-56.5 -2.5q-59 0 -100 9l223 260q27 4 60.5 6 t64.5 2q23 0 54.5 -2t60.5 -8z" />
<glyph unicode="&#xef;" horiz-adv-x="589" d="M-16 1237q-4 27 -6.5 51.5t-2.5 50.5q0 25 2.5 50.5t6.5 52.5q25 4 52.5 6t51.5 2q23 0 50.5 -2t54.5 -6q8 -47 8 -103q0 -25 -2 -50t-6 -52q-53 -6 -105 -6q-23 0 -51 1t-53 5zM401 1237q-8 47 -8 102q0 25 2 50.5t6 52.5q25 4 52.5 6t50.5 2q25 0 52.5 -2t53.5 -6 q6 -53 6 -103q0 -51 -6 -102q-53 -6 -104 -6q-23 0 -51.5 1t-53.5 5zM225 891h-133q-4 16 -6 37.5t-2 42.5q0 20 2 41.5t6 38.5h332v-1051q-23 -4 -50.5 -6t-49.5 -2q-20 0 -48 2t-51 6v891z" />
<glyph unicode="&#xf0;" horiz-adv-x="1189" d="M512 1284q-47 23 -98.5 34t-108.5 19q-10 29 -10 72q0 23 5 49.5t13 48.5q109 -6 202 -34.5t171 -75.5l180 114q25 -20 44.5 -50.5t33.5 -59.5l-71 -44l-72 -44q139 -129 210.5 -322.5t71.5 -423.5q0 -135 -29.5 -244.5t-90 -186.5t-152.5 -119t-217 -42t-217 38 t-152.5 106.5t-90.5 162t-30 203.5q0 109 30 202t87.5 163t143.5 108.5t198 38.5q78 0 151.5 -25.5t121.5 -72.5q-41 109 -85 182.5t-110 126.5l-201 -125q-25 23 -43 52.5t-28 58.5zM594 133q143 0 208.5 93t65.5 259q0 174 -65.5 261.5t-208.5 87.5q-135 0 -206 -87.5 t-71 -261.5q0 -166 67 -259t210 -93z" />
<glyph unicode="&#xf1;" horiz-adv-x="1183" d="M164 1051q23 4 44 6t44 2t42 -2t42 -6q6 -31 12 -83.5t6 -86.5q20 35 52 69.5t73 62t94.5 45t116.5 17.5q180 0 266 -103.5t86 -305.5v-666q-23 -4 -51 -6t-51 -2t-50.5 2t-49.5 6v610q0 145 -45 214t-144 69q-57 0 -108 -20.5t-90 -63.5t-62.5 -111.5t-23.5 -165.5v-532 q-23 -4 -50.5 -6t-50.5 -2t-51.5 2t-50.5 6v1051zM242 1368q31 41 80 70.5t116 29.5q43 0 82 -14t75 -30.5t73 -31t78 -14.5q35 0 64.5 12.5t72.5 51.5q45 -55 65 -125q-33 -39 -83 -67.5t-115 -28.5q-43 0 -82 14t-76 30.5t-73 31t-75 14.5q-41 0 -69.5 -14.5t-69.5 -49.5 q-23 29 -39 58.5t-24 62.5z" />
<glyph unicode="&#xf2;" horiz-adv-x="1181" d="M590 -25q-123 0 -215 42t-153.5 116t-91.5 174.5t-30 216.5q0 117 30 217.5t91.5 174t153.5 116.5t215 43t215 -43t153.5 -116.5t91 -174t29.5 -217.5t-29.5 -217t-91 -174t-153.5 -116t-215 -42zM590 137q141 0 208.5 102.5t67.5 284.5t-67.5 283.5t-208.5 101.5 t-208 -101t-67 -284q0 -182 67 -284.5t208 -102.5zM260 1477q31 4 61.5 6t67.5 2q33 0 67 -2t64 -6l236 -260q-47 -8 -96 -9q-31 0 -58.5 2t-50.5 7z" />
<glyph unicode="&#xf3;" horiz-adv-x="1181" d="M590 -25q-123 0 -215 42t-153.5 116t-91.5 174.5t-30 216.5q0 117 30 217.5t91.5 174t153.5 116.5t215 43t215 -43t153.5 -116.5t91 -174t29.5 -217.5t-29.5 -217t-91 -174t-153.5 -116t-215 -42zM590 137q141 0 208.5 102.5t67.5 284.5t-67.5 283.5t-208.5 101.5 t-208 -101t-67 -284q0 -182 67 -284.5t208 -102.5zM602 1217q-23 -4 -49.5 -6.5t-59.5 -2.5q-23 0 -46 2t-48 7l236 260q31 4 63.5 6t67.5 2q37 0 67.5 -2t59.5 -6z" />
<glyph unicode="&#xf4;" horiz-adv-x="1181" d="M590 -25q-123 0 -215 42t-153.5 116t-91.5 174.5t-30 216.5q0 117 30 217.5t91.5 174t153.5 116.5t215 43t215 -43t153.5 -116.5t91 -174t29.5 -217.5t-29.5 -217t-91 -174t-153.5 -116t-215 -42zM590 137q141 0 208.5 102.5t67.5 284.5t-67.5 283.5t-208.5 101.5 t-208 -101t-67 -284q0 -182 67 -284.5t208 -102.5zM930 1217q-18 -4 -42 -6.5t-50 -2.5q-27 0 -58.5 2t-58.5 7l-133 163l-133 -163q-23 -4 -52.5 -6.5t-56.5 -2.5q-59 0 -100 9l223 260q27 4 60.5 6t64.5 2q23 0 54.5 -2t60.5 -8z" />
<glyph unicode="&#xf5;" horiz-adv-x="1181" d="M590 -25q-123 0 -215 42t-153.5 116t-91.5 174.5t-30 216.5q0 117 30 217.5t91.5 174t153.5 116.5t215 43t215 -43t153.5 -116.5t91 -174t29.5 -217.5t-29.5 -217t-91 -174t-153.5 -116t-215 -42zM590 137q141 0 208.5 102.5t67.5 284.5t-67.5 283.5t-208.5 101.5 t-208 -101t-67 -284q0 -182 67 -284.5t208 -102.5zM236 1368q31 41 80 70.5t116 29.5q43 0 82 -14t75 -30.5t73 -31t78 -14.5q35 0 64.5 12.5t72.5 51.5q45 -55 65 -125q-33 -39 -83 -67.5t-115 -28.5q-43 0 -82 14t-76 30.5t-73 31t-75 14.5q-41 0 -69.5 -14.5t-69.5 -49.5 q-23 29 -39 58.5t-24 62.5z" />
<glyph unicode="&#xf6;" horiz-adv-x="1181" d="M590 -25q-123 0 -215 42t-153.5 116t-91.5 174.5t-30 216.5q0 117 30 217.5t91.5 174t153.5 116.5t215 43t215 -43t153.5 -116.5t91 -174t29.5 -217.5t-29.5 -217t-91 -174t-153.5 -116t-215 -42zM590 137q141 0 208.5 102.5t67.5 284.5t-67.5 283.5t-208.5 101.5 t-208 -101t-67 -284q0 -182 67 -284.5t208 -102.5zM275 1237q-4 27 -6.5 51.5t-2.5 50.5q0 25 2.5 50.5t6.5 52.5q25 4 52.5 6t51.5 2q23 0 50.5 -2t54.5 -6q8 -47 8 -103q0 -25 -2 -50t-6 -52q-53 -6 -105 -6q-23 0 -51 1t-53 5zM692 1237q-8 47 -8 102q0 25 2 50.5t6 52.5 q25 4 52.5 6t50.5 2q25 0 52.5 -2t53.5 -6q6 -53 6 -103q0 -51 -6 -102q-53 -6 -104 -6q-23 0 -51.5 1t-53.5 5z" />
<glyph unicode="&#xf7;" d="M467 1096q0 59 41 100t100 41q57 0 99.5 -41t42.5 -100t-42 -99.5t-100 -40.5q-59 0 -100 40.5t-41 99.5zM467 356q0 57 41 99.5t100 42.5q57 0 99.5 -42t42.5 -100q0 -59 -42 -100t-100 -41q-59 0 -100 41t-41 100zM1049 815q4 -20 6 -46t2 -48q0 -23 -2 -48.5t-6 -43.5 h-869q-4 18 -5 43.5t-1 48.5t1 48.5t5 45.5h869z" />
<glyph unicode="&#xf8;" horiz-adv-x="1181" d="M590 -25q-166 0 -279 78l-39 -51q-33 -8 -73 -8q-47 0 -78 6l104 133q-61 74 -91 174.5t-30 216.5q0 117 30 217.5t90.5 174t151.5 116.5t214 43q92 0 166.5 -25.5t132.5 -70.5l51 63q31 8 76 9q45 0 76 -7l-121 -151q53 -74 78.5 -167t25.5 -202q0 -117 -29.5 -217 t-90 -174t-151.5 -116t-214 -42zM313 524q0 -141 39 -231l424 543q-70 74 -186 73q-141 0 -209 -101.5t-68 -283.5zM590 137q141 0 209.5 102.5t68.5 284.5q0 59 -7 108.5t-21 92.5l-418 -532q64 -56 168 -56z" />
<glyph unicode="&#xf9;" horiz-adv-x="1175" d="M152 1051q23 4 51 6t49 2q23 0 51.5 -2t50.5 -6v-576q0 -98 18.5 -162.5t55.5 -101.5t90 -51.5t123 -14.5q104 0 178 23v883q23 4 50.5 6t50.5 2t50 -2t50 -6v-1018q-72 -20 -171 -39t-206 -19q-100 0 -189 17.5t-157 71t-106.5 149.5t-38.5 254v584zM264 1477 q31 4 61.5 6t67.5 2q33 0 67 -2t64 -6l236 -260q-47 -8 -96 -9q-31 0 -58.5 2t-50.5 7z" />
<glyph unicode="&#xfa;" horiz-adv-x="1175" d="M152 1051q23 4 51 6t49 2q23 0 51.5 -2t50.5 -6v-576q0 -98 18.5 -162.5t55.5 -101.5t90 -51.5t123 -14.5q104 0 178 23v883q23 4 50.5 6t50.5 2t50 -2t50 -6v-1018q-72 -20 -171 -39t-206 -19q-100 0 -189 17.5t-157 71t-106.5 149.5t-38.5 254v584zM641 1217 q-23 -4 -49.5 -6.5t-59.5 -2.5q-23 0 -46 2t-48 7l236 260q31 4 63.5 6t67.5 2q37 0 67.5 -2t59.5 -6z" />
<glyph unicode="&#xfb;" horiz-adv-x="1175" d="M152 1051q23 4 51 6t49 2q23 0 51.5 -2t50.5 -6v-576q0 -98 18.5 -162.5t55.5 -101.5t90 -51.5t123 -14.5q104 0 178 23v883q23 4 50.5 6t50.5 2t50 -2t50 -6v-1018q-72 -20 -171 -39t-206 -19q-100 0 -189 17.5t-157 71t-106.5 149.5t-38.5 254v584zM928 1217 q-18 -4 -42 -6.5t-50 -2.5q-27 0 -58.5 2t-58.5 7l-133 163l-133 -163q-23 -4 -52.5 -6.5t-56.5 -2.5q-59 0 -100 9l223 260q27 4 60.5 6t64.5 2q23 0 54.5 -2t60.5 -8z" />
<glyph unicode="&#xfc;" horiz-adv-x="1175" d="M152 1051q23 4 51 6t49 2q23 0 51.5 -2t50.5 -6v-576q0 -98 18.5 -162.5t55.5 -101.5t90 -51.5t123 -14.5q104 0 178 23v883q23 4 50.5 6t50.5 2t50 -2t50 -6v-1018q-72 -20 -171 -39t-206 -19q-100 0 -189 17.5t-157 71t-106.5 149.5t-38.5 254v584zM285 1237 q-4 27 -6.5 51.5t-2.5 50.5q0 25 2.5 50.5t6.5 52.5q25 4 52.5 6t51.5 2q23 0 50.5 -2t54.5 -6q8 -47 8 -103q0 -25 -2 -50t-6 -52q-53 -6 -105 -6q-23 0 -51 1t-53 5zM702 1237q-8 47 -8 102q0 25 2 50.5t6 52.5q25 4 52.5 6t50.5 2q25 0 52.5 -2t53.5 -6q6 -53 6 -103 q0 -51 -6 -102q-53 -6 -104 -6q-23 0 -51.5 1t-53.5 5z" />
<glyph unicode="&#xfd;" horiz-adv-x="1079" d="M522 -2q-16 0 -33.5 -1t-33.5 -1q-20 0 -43 1t-37 3l-348 1051q27 4 55.5 5t52.5 1q27 0 59.5 -1t55.5 -5l291 -977l301 977q43 6 100 6q23 0 51.5 -1t57.5 -5l-408 -1264q-29 -84 -59.5 -141.5t-69.5 -92t-87 -49t-112 -14.5q-47 0 -93 7t-81 18q0 47 8.5 83.5 t24.5 73.5q18 -6 50 -13t69 -7q27 0 50.5 5t44 20.5t37.5 44t34 77.5zM563 1217q-23 -4 -49.5 -6.5t-59.5 -2.5q-23 0 -46 2t-48 7l236 260q31 4 63.5 6t67.5 2q37 0 67.5 -2t59.5 -6z" />
<glyph unicode="&#xfe;" horiz-adv-x="1208" d="M160 1501q25 4 52.5 5t49.5 1q23 0 50.5 -1t49.5 -5v-583q41 61 118 109t194 48q92 0 171 -31.5t135 -96t88 -163t32 -233.5q0 -270 -146.5 -423t-416.5 -153q-43 0 -90.5 7.5t-84.5 17.5v-483q-23 -4 -51 -5t-49 -1q-23 0 -50.5 1t-51.5 5v1984zM362 172 q39 -14 81 -21.5t106 -7.5q74 0 135 23.5t105.5 73t70 125t25.5 178.5q0 162 -59.5 258t-196.5 96q-51 0 -99.5 -17.5t-85 -54.5t-59.5 -93t-23 -134v-426z" />
<glyph unicode="&#xff;" horiz-adv-x="1079" d="M522 -2q-16 0 -33.5 -1t-33.5 -1q-20 0 -43 1t-37 3l-348 1051q27 4 55.5 5t52.5 1q27 0 59.5 -1t55.5 -5l291 -977l301 977q43 6 100 6q23 0 51.5 -1t57.5 -5l-408 -1264q-29 -84 -59.5 -141.5t-69.5 -92t-87 -49t-112 -14.5q-47 0 -93 7t-81 18q0 47 8.5 83.5 t24.5 73.5q18 -6 50 -13t69 -7q27 0 50.5 5t44 20.5t37.5 44t34 77.5zM228 1237q-4 27 -6.5 51.5t-2.5 50.5q0 25 2.5 50.5t6.5 52.5q25 4 52.5 6t51.5 2q23 0 50.5 -2t54.5 -6q8 -47 8 -103q0 -25 -2 -50t-6 -52q-53 -6 -105 -6q-23 0 -51 1t-53 5zM645 1237q-8 47 -8 102 q0 25 2 50.5t6 52.5q25 4 52.5 6t50.5 2q25 0 52.5 -2t53.5 -6q6 -53 6 -103q0 -51 -6 -102q-53 -6 -104 -6q-23 0 -51.5 1t-53.5 5z" />
<glyph unicode="&#x100;" horiz-adv-x="1263" d="M905 340h-559l-100 -340q-27 -4 -53.5 -6t-53.5 -2q-29 0 -56.5 2t-49.5 6l479 1473q27 4 57.5 6t63.5 2q29 0 59.5 -2t59.5 -6l477 -1473q-25 -4 -55.5 -6t-59.5 -2q-27 0 -54.5 2t-51.5 6zM401 522h449l-225 752zM957 1780q4 -16 5 -38t1 -40t-1 -39t-5 -37h-654 q-4 16 -6 36.5t-2 39.5q0 18 2 39.5t6 38.5h654z" />
<glyph unicode="&#x101;" horiz-adv-x="1058" d="M719 494q-31 4 -78 8t-80 4q-127 0 -193.5 -47t-66.5 -144q0 -61 22.5 -96t56.5 -53.5t75 -22.5t77 -4q47 0 97.5 5.5t89.5 15.5v334zM719 692q0 121 -61.5 168t-178.5 47q-72 0 -134 -11t-122 -30q-39 68 -39 162q70 23 154 35t162 12q205 0 311.5 -93t106.5 -298v-657 q-72 -16 -174.5 -34t-208.5 -18q-100 0 -181.5 18.5t-137.5 59.5t-87 104.5t-31 153.5q0 88 36 154.5t97.5 111t141.5 66t168 21.5q66 0 107.5 -3.5t70.5 -7.5v39zM808 1421q4 -16 6.5 -36.5t2.5 -38.5t-2 -39t-7 -37h-552q-4 16 -6.5 36.5t-2.5 39.5q0 16 2 37.5t7 37.5 h552z" />
<glyph unicode="&#x102;" horiz-adv-x="1263" d="M905 340h-559l-100 -340q-27 -4 -53.5 -6t-53.5 -2q-29 0 -56.5 2t-49.5 6l479 1473q27 4 57.5 6t63.5 2q29 0 59.5 -2t59.5 -6l477 -1473q-25 -4 -55.5 -6t-59.5 -2q-27 0 -54.5 2t-51.5 6zM401 522h449l-225 752zM629 1583q-47 0 -103.5 8t-106.5 35t-87 74t-45 125 q23 4 44 7t44 3q25 0 47.5 -3t44.5 -7q6 -45 41 -78t121 -33t121 33t41 78q51 10 94 10q23 0 43 -3l45 -7q-8 -78 -46 -125t-88 -74t-106.5 -35t-103.5 -8z" />
<glyph unicode="&#x103;" horiz-adv-x="1058" d="M719 494q-31 4 -78 8t-80 4q-127 0 -193.5 -47t-66.5 -144q0 -61 22.5 -96t56.5 -53.5t75 -22.5t77 -4q47 0 97.5 5.5t89.5 15.5v334zM719 692q0 121 -61.5 168t-178.5 47q-72 0 -134 -11t-122 -30q-39 68 -39 162q70 23 154 35t162 12q205 0 311.5 -93t106.5 -298v-657 q-72 -16 -174.5 -34t-208.5 -18q-100 0 -181.5 18.5t-137.5 59.5t-87 104.5t-31 153.5q0 88 36 154.5t97.5 111t141.5 66t168 21.5q66 0 107.5 -3.5t70.5 -7.5v39zM535 1200q-47 0 -101.5 11.5t-103.5 42t-86 84t-47 137.5q23 6 47.5 8t46.5 2q23 0 44.5 -3t43.5 -7 q2 -25 11.5 -48.5t28 -43t46 -32t70.5 -12.5t70.5 12.5t46 32t27 43t12.5 48.5q25 4 47 7t45 3t46 -2t44 -8q-10 -84 -47 -137.5t-86 -84t-103.5 -42t-101.5 -11.5z" />
<glyph unicode="&#x104;" horiz-adv-x="1263" d="M903 340h-555l-102 -340q-27 -4 -53.5 -6t-53.5 -2q-29 0 -56.5 2t-49.5 6l479 1473q27 4 57.5 6t63.5 2q29 0 59.5 -2t59.5 -6l477 -1473q-35 -6 -72 -31.5t-67.5 -61.5t-51 -79t-20.5 -82q0 -47 29.5 -74.5t87.5 -27.5q16 0 43.5 4t62.5 14q16 -27 22.5 -64.5 t8.5 -68.5q-31 -10 -74 -17.5t-104 -7.5q-49 0 -96.5 11.5t-84 36t-60.5 63.5t-24 96q0 76 49.5 153t129.5 136zM850 522l-225 733l-224 -733h449z" />
<glyph unicode="&#x105;" horiz-adv-x="1058" d="M719 692q0 121 -61.5 168t-178.5 47q-72 0 -134 -11t-122 -30q-39 68 -39 162q70 23 154 35t162 12q205 0 311.5 -93t106.5 -298v-657l-37 -19q-106 -53 -155.5 -122.5t-49.5 -135.5q0 -49 27.5 -79.5t84.5 -30.5q18 0 43 3t58 13q14 -25 21.5 -61.5t9.5 -67.5 q-29 -10 -75 -16.5t-95 -6.5t-96.5 11.5t-83 36t-58.5 63.5t-23 94q0 66 40 139.5t110 133.5q-53 -6 -104 -7q-100 0 -181.5 18.5t-137.5 59.5t-87 104.5t-31 153.5q0 88 36 154.5t97.5 111t141.5 66t168 21.5q66 0 107.5 -3.5t70.5 -7.5v39zM719 494q-31 4 -78 8t-80 4 q-127 0 -193.5 -47t-66.5 -144q0 -61 22.5 -96t56.5 -53.5t75 -22.5t77 -4q47 0 97.5 5.5t89.5 15.5v334z" />
<glyph unicode="&#x106;" horiz-adv-x="1265" d="M1120 215q45 -88 58 -170q-86 -37 -176.5 -53.5t-194.5 -16.5q-160 0 -288 52.5t-216 149.5t-135 236.5t-47 313.5q0 176 47 318.5t135 243t215 154.5t285 54q117 0 200.5 -16.5t149.5 -38.5q-4 -47 -17.5 -87t-31.5 -85q-31 10 -59.5 18t-61.5 14.5t-73 9.5t-91 3 q-223 0 -347 -151.5t-124 -436.5q0 -145 35 -251.5t98.5 -176.5t152.5 -104.5t200 -34.5q86 0 155.5 14t130.5 41zM837 1595q-27 -4 -55.5 -6t-56.5 -2q-29 0 -53.5 2t-53.5 6l217 222q33 4 70 7t74 3q39 0 73.5 -3t63.5 -7z" />
<glyph unicode="&#x107;" horiz-adv-x="978" d="M864 182q16 -29 28.5 -71.5t14.5 -87.5q-121 -47 -276 -48q-262 0 -395.5 148.5t-133.5 400.5q0 117 33 217.5t97.5 174t160.5 116.5t223 43q86 0 152 -10t125 -33q0 -35 -9.5 -81t-25.5 -81q-100 35 -229 35q-158 0 -236 -104.5t-78 -276.5q0 -197 88.5 -288t241.5 -91 q61 0 113.5 8.5t105.5 28.5zM631 1217q-23 -4 -49.5 -6.5t-59.5 -2.5q-23 0 -46 2t-48 7l236 260q31 4 63.5 6t67.5 2q37 0 67.5 -2t59.5 -6z" />
<glyph unicode="&#x108;" horiz-adv-x="1265" d="M1120 215q45 -88 58 -170q-86 -37 -176.5 -53.5t-194.5 -16.5q-160 0 -288 52.5t-216 149.5t-135 236.5t-47 313.5q0 176 47 318.5t135 243t215 154.5t285 54q117 0 200.5 -16.5t149.5 -38.5q-4 -47 -17.5 -87t-31.5 -85q-31 10 -59.5 18t-61.5 14.5t-73 9.5t-91 3 q-223 0 -347 -151.5t-124 -436.5q0 -145 35 -251.5t98.5 -176.5t152.5 -104.5t200 -34.5q86 0 155.5 14t130.5 41zM1132 1595q-18 -4 -40.5 -6t-43.5 -2h-45q-23 0 -50.5 2t-43.5 6l-133 125l-133 -125q-18 -4 -47 -6t-49 -2h-48q-20 0 -41.5 2t-41.5 6l241 222q23 4 53.5 6 t65.5 2t64.5 -2t56.5 -6z" />
<glyph unicode="&#x109;" horiz-adv-x="978" d="M864 182q16 -29 28.5 -71.5t14.5 -87.5q-121 -47 -276 -48q-262 0 -395.5 148.5t-133.5 400.5q0 117 33 217.5t97.5 174t160.5 116.5t223 43q86 0 152 -10t125 -33q0 -35 -9.5 -81t-25.5 -81q-100 35 -229 35q-158 0 -236 -104.5t-78 -276.5q0 -197 88.5 -288t241.5 -91 q61 0 113.5 8.5t105.5 28.5zM920 1217q-18 -4 -42 -6.5t-50 -2.5q-27 0 -58.5 2t-58.5 7l-133 163l-133 -163q-23 -4 -52.5 -6.5t-56.5 -2.5q-59 0 -100 9l223 260q27 4 60.5 6t64.5 2q23 0 54.5 -2t60.5 -8z" />
<glyph unicode="&#x10a;" horiz-adv-x="1265" d="M1120 215q45 -88 58 -170q-86 -37 -176.5 -53.5t-194.5 -16.5q-160 0 -288 52.5t-216 149.5t-135 236.5t-47 313.5q0 176 47 318.5t135 243t215 154.5t285 54q117 0 200.5 -16.5t149.5 -38.5q-4 -47 -17.5 -87t-31.5 -85q-31 10 -59.5 18t-61.5 14.5t-73 9.5t-91 3 q-223 0 -347 -151.5t-124 -436.5q0 -145 35 -251.5t98.5 -176.5t152.5 -104.5t200 -34.5q86 0 155.5 14t130.5 41zM690 1614q-8 47 -8 104q0 27 2 53.5t6 53.5q29 6 56.5 8t53.5 2q27 0 55.5 -2t57.5 -8q8 -47 8 -105q0 -27 -2 -53.5t-6 -52.5q-29 -6 -56.5 -8t-54.5 -2 t-55 2t-57 8z" />
<glyph unicode="&#x10b;" horiz-adv-x="978" d="M864 182q16 -29 28.5 -71.5t14.5 -87.5q-121 -47 -276 -48q-262 0 -395.5 148.5t-133.5 400.5q0 117 33 217.5t97.5 174t160.5 116.5t223 43q86 0 152 -10t125 -33q0 -35 -9.5 -81t-25.5 -81q-100 35 -229 35q-158 0 -236 -104.5t-78 -276.5q0 -197 88.5 -288t241.5 -91 q61 0 113.5 8.5t105.5 28.5zM478 1243q-4 29 -6.5 56.5t-2.5 56.5q0 27 2.5 55.5t6.5 56.5q29 4 58.5 7.5t57.5 3.5q29 0 59.5 -3t59.5 -8q4 -29 6 -56.5t2 -55.5q0 -27 -2 -55.5t-6 -57.5q-29 -4 -58.5 -6t-58.5 -2t-59 2t-59 6z" />
<glyph unicode="&#x10c;" horiz-adv-x="1265" d="M1120 215q45 -88 58 -170q-86 -37 -176.5 -53.5t-194.5 -16.5q-160 0 -288 52.5t-216 149.5t-135 236.5t-47 313.5q0 176 47 318.5t135 243t215 154.5t285 54q117 0 200.5 -16.5t149.5 -38.5q-4 -47 -17.5 -87t-31.5 -85q-31 10 -59.5 18t-61.5 14.5t-73 9.5t-91 3 q-223 0 -347 -151.5t-124 -436.5q0 -145 35 -251.5t98.5 -176.5t152.5 -104.5t200 -34.5q86 0 155.5 14t130.5 41zM435 1817q18 2 40.5 5t43.5 3h45q23 0 50 -3l44 -5l67 -64l66 -63l133 127l47 5q29 3 49 3h47q20 0 42 -3t42 -5l-241 -222q-23 -4 -53.5 -6t-65.5 -2 t-64.5 2t-56.5 6z" />
<glyph unicode="&#x10d;" horiz-adv-x="978" d="M864 182q16 -29 28.5 -71.5t14.5 -87.5q-121 -47 -276 -48q-262 0 -395.5 148.5t-133.5 400.5q0 117 33 217.5t97.5 174t160.5 116.5t223 43q86 0 152 -10t125 -33q0 -35 -9.5 -81t-25.5 -81q-100 35 -229 35q-158 0 -236 -104.5t-78 -276.5q0 -197 88.5 -288t241.5 -91 q61 0 113.5 8.5t105.5 28.5zM264 1475q20 4 42.5 7t51.5 3q25 0 57.5 -3t57.5 -7l133 -164l133 164q23 4 53.5 7t57.5 3q51 0 98 -10l-223 -261q-27 -4 -60.5 -5t-62.5 -1q-23 0 -55.5 2t-61.5 7z" />
<glyph unicode="&#x10e;" horiz-adv-x="1431" d="M182 1473q70 8 168.5 15t192.5 7q387 0 578.5 -196.5t191.5 -565.5q0 -385 -195.5 -571.5t-582.5 -186.5q-96 0 -190.5 7.5t-162.5 17.5v1473zM391 172q29 -4 71 -7t89 -3q121 0 220 27.5t171 93t111 177t39 279.5q0 154 -39 262.5t-110 177t-169 99.5t-217 31 q-39 0 -85 -1t-81 -8v-1128zM252 1817q18 2 40.5 5t43.5 3h45q23 0 50 -3l44 -5l67 -64l66 -63l133 127l47 5q29 3 49 3h47q20 0 42 -3t42 -5l-241 -222q-23 -4 -53.5 -6t-65.5 -2t-64.5 2t-56.5 6z" />
<glyph unicode="&#x10f;" horiz-adv-x="1366" d="M838 1501q23 4 51.5 6t48.5 2q23 0 50.5 -2t49.5 -6v-1472q-78 -23 -174 -38.5t-215 -15.5q-111 0 -210 28t-172.5 91.5t-117 163.5t-43.5 248q0 127 38 231.5t108 179t167 115.5t216 41q53 0 107.5 -8t95.5 -21v457zM838 872q-41 16 -88.5 24.5t-102.5 8.5 q-84 0 -145.5 -30.5t-101.5 -84t-59 -126t-19 -158.5q2 -195 92 -279t245 -84q53 0 98.5 5.5t80.5 15.5v708zM1209 1497q33 8 94 8q25 0 50.5 -2t47.5 -6l-28 -416q-16 -4 -37 -6t-41 -2t-42 2t-44 6v416z" />
<glyph unicode="&#x110;" horiz-adv-x="1449" d="M201 678h-168q-4 16 -6 36.5t-2 39.5q0 18 2 39.5t6 37.5h168v642q70 8 168 15t192 7q387 0 578.5 -196.5t191.5 -565.5q0 -385 -195.5 -571.5t-582.5 -186.5q-96 0 -190.5 7.5t-161.5 17.5v678zM410 831h331q4 -16 6.5 -37.5t2.5 -39.5q0 -16 -2.5 -38t-6.5 -38h-331 v-506q29 -4 70.5 -7t88.5 -3q121 0 220.5 27.5t171 93t110.5 177t39 279.5q0 154 -39 262.5t-109.5 177t-169 99.5t-217.5 31q-39 0 -85 -1t-80 -8v-469z" />
<glyph unicode="&#x111;" horiz-adv-x="1222" d="M838 1194h-299q-4 12 -6.5 31.5t-2.5 36.5q0 16 2.5 36.5t6.5 34.5h299v168q23 4 51.5 6t48.5 2q23 0 50.5 -2t49.5 -6v-168h150q4 -14 6 -33.5t2 -35.5t-2 -37t-6 -33h-150v-1165q-78 -23 -174 -38.5t-215 -15.5q-111 0 -209 28t-171.5 91.5t-116.5 163.5t-43 248 q0 127 37.5 231.5t106.5 179t166 115.5t216 41q53 0 107.5 -8t95.5 -21v150zM838 877q-41 16 -88.5 24t-102.5 8q-84 0 -146.5 -30.5t-103.5 -84t-60.5 -126t-19.5 -158.5q2 -195 92.5 -279t245.5 -84q53 0 100.5 5.5t82.5 15.5v709z" />
<glyph unicode="&#x112;" horiz-adv-x="1097" d="M180 1473h809q6 -41 6 -91q0 -23 -1 -47t-5 -45h-600v-422h479q4 -20 6.5 -43.5t2.5 -46.5t-2.5 -47t-6.5 -45h-479v-504h617q6 -41 6 -90q0 -23 -1 -47.5t-5 -44.5h-826v1473zM912 1780q4 -16 5 -38t1 -40t-1 -39t-5 -37h-654q-4 16 -6 36.5t-2 39.5q0 18 2 39.5t6 38.5 h654z" />
<glyph unicode="&#x113;" horiz-adv-x="1140" d="M317 475q4 -172 89 -252t251 -80q145 0 277 52q16 -31 26.5 -75t12.5 -87q-68 -29 -149 -43.5t-179 -14.5q-143 0 -245.5 40t-169 113t-97.5 172t-31 218q0 117 30 218.5t91.5 176t154.5 118.5t220 44q109 0 190.5 -37t137 -101.5t84 -153.5t28.5 -193q0 -29 -2 -60.5 t-4 -54.5h-715zM838 627q0 57 -15.5 109t-45.5 91t-76 62.5t-109 23.5q-125 0 -191.5 -75.5t-81.5 -210.5h519zM864 1421q4 -16 6.5 -36.5t2.5 -38.5t-2 -39t-7 -37h-552q-4 16 -6.5 36.5t-2.5 39.5q0 16 2 37.5t7 37.5h552z" />
<glyph unicode="&#x114;" horiz-adv-x="1097" d="M180 1473h809q6 -41 6 -91q0 -23 -1 -47t-5 -45h-600v-422h479q4 -20 6.5 -43.5t2.5 -46.5t-2.5 -47t-6.5 -45h-479v-504h617q6 -41 6 -90q0 -23 -1 -47.5t-5 -44.5h-826v1473zM594 1583q-47 0 -103.5 8t-106.5 35t-87 74t-45 125q23 4 44 7t44 3q25 0 47.5 -3t44.5 -7 q6 -45 41 -78t121 -33t121 33t41 78q51 10 94 10q23 0 43 -3l45 -7q-8 -78 -46 -125t-88 -74t-106.5 -35t-103.5 -8z" />
<glyph unicode="&#x115;" horiz-adv-x="1140" d="M317 475q4 -172 89 -252t251 -80q145 0 277 52q16 -31 26.5 -75t12.5 -87q-68 -29 -149 -43.5t-179 -14.5q-143 0 -245.5 40t-169 113t-97.5 172t-31 218q0 117 30 218.5t91.5 176t154.5 118.5t220 44q109 0 190.5 -37t137 -101.5t84 -153.5t28.5 -193q0 -29 -2 -60.5 t-4 -54.5h-715zM838 627q0 57 -15.5 109t-45.5 91t-76 62.5t-109 23.5q-125 0 -191.5 -75.5t-81.5 -210.5h519zM586 1200q-47 0 -101.5 11.5t-103.5 42t-86 84t-47 137.5q23 6 47.5 8t46.5 2q23 0 44.5 -3t43.5 -7q2 -25 11.5 -48.5t28 -43t46 -32t70.5 -12.5t70.5 12.5 t46 32t27 43t12.5 48.5q25 4 47 7t45 3t46 -2t44 -8q-10 -84 -47 -137.5t-86 -84t-103.5 -42t-101.5 -11.5z" />
<glyph unicode="&#x116;" horiz-adv-x="1097" d="M180 1473h809q6 -41 6 -91q0 -23 -1 -47t-5 -45h-600v-422h479q4 -20 6.5 -43.5t2.5 -46.5t-2.5 -47t-6.5 -45h-479v-504h617q6 -41 6 -90q0 -23 -1 -47.5t-5 -44.5h-826v1473zM488 1614q-8 47 -8 104q0 27 2 53.5t6 53.5q29 6 56.5 8t53.5 2q27 0 55.5 -2t57.5 -8 q8 -47 8 -105q0 -27 -2 -53.5t-6 -52.5q-29 -6 -56.5 -8t-54.5 -2t-55 2t-57 8z" />
<glyph unicode="&#x117;" horiz-adv-x="1140" d="M317 475q4 -172 89 -252t251 -80q145 0 277 52q16 -31 26.5 -75t12.5 -87q-68 -29 -149 -43.5t-179 -14.5q-143 0 -245.5 40t-169 113t-97.5 172t-31 218q0 117 30 218.5t91.5 176t154.5 118.5t220 44q109 0 190.5 -37t137 -101.5t84 -153.5t28.5 -193q0 -29 -2 -60.5 t-4 -54.5h-715zM838 627q0 57 -15.5 109t-45.5 91t-76 62.5t-109 23.5q-125 0 -191.5 -75.5t-81.5 -210.5h519zM482 1243q-4 29 -6.5 56.5t-2.5 56.5q0 27 2.5 55.5t6.5 56.5q29 4 58.5 7.5t57.5 3.5q29 0 59.5 -3t59.5 -8q4 -29 6 -56.5t2 -55.5q0 -27 -2 -55.5t-6 -57.5 q-29 -4 -58.5 -6t-58.5 -2t-59 2t-59 6z" />
<glyph unicode="&#x118;" horiz-adv-x="1097" d="M178 1473h809q4 -23 6 -45.5t2 -45.5t-2 -48t-6 -46h-600v-420h481q6 -43 6 -92q0 -23 -1 -46t-5 -46h-481v-502h617q4 -20 6 -43.5t2 -46.5q0 -8 -1 -19.5t-1 -17.5q-47 -43 -92.5 -77.5t-80 -68.5t-55 -73t-20.5 -88q0 -47 28.5 -74.5t86.5 -27.5q16 0 43.5 3t62.5 13 q16 -27 23.5 -63.5t7.5 -69.5q-31 -10 -74 -17.5t-104 -7.5q-49 0 -96.5 11.5t-84.5 36t-60.5 64.5t-23.5 97q0 76 49.5 152t129.5 135h-572v1473z" />
<glyph unicode="&#x119;" horiz-adv-x="1138" d="M315 475q4 -172 89 -252t251 -80q145 0 277 52q16 -31 27.5 -75t13.5 -87q-47 -18 -91 -47t-79 -65t-56.5 -79t-21.5 -90q0 -51 29.5 -80.5t87.5 -29.5q16 0 39.5 3t56.5 13q14 -27 21.5 -63.5t9.5 -65.5q-29 -10 -75 -17.5t-95 -7.5t-96.5 11.5t-83 36t-58 64.5 t-22.5 95q0 63 37.5 134t105.5 130h-39q-143 0 -245.5 40t-169 113t-97.5 172t-31 218q0 117 30 218.5t91.5 176t154.5 118.5t220 44q109 0 190.5 -37t137 -101.5t84 -153.5t28.5 -193q0 -29 -2 -60.5t-4 -54.5h-715zM836 627q0 57 -15.5 109t-45.5 91t-76 62.5t-109 23.5 q-125 0 -191.5 -75.5t-81.5 -210.5h519z" />
<glyph unicode="&#x11a;" horiz-adv-x="1097" d="M180 1473h809q6 -41 6 -91q0 -23 -1 -47t-5 -45h-600v-422h479q4 -20 6.5 -43.5t2.5 -46.5t-2.5 -47t-6.5 -45h-479v-504h617q6 -41 6 -90q0 -23 -1 -47.5t-5 -44.5h-826v1473zM242 1817q18 2 40.5 5t43.5 3h45q23 0 50 -3l44 -5l67 -64l66 -63l133 127l47 5q29 3 49 3 h47q20 0 42 -3t42 -5l-241 -222q-23 -4 -53.5 -6t-65.5 -2t-64.5 2t-56.5 6z" />
<glyph unicode="&#x11b;" horiz-adv-x="1140" d="M317 475q4 -172 89 -252t251 -80q145 0 277 52q16 -31 26.5 -75t12.5 -87q-68 -29 -149 -43.5t-179 -14.5q-143 0 -245.5 40t-169 113t-97.5 172t-31 218q0 117 30 218.5t91.5 176t154.5 118.5t220 44q109 0 190.5 -37t137 -101.5t84 -153.5t28.5 -193q0 -29 -2 -60.5 t-4 -54.5h-715zM838 627q0 57 -15.5 109t-45.5 91t-76 62.5t-109 23.5q-125 0 -191.5 -75.5t-81.5 -210.5h519zM244 1475q20 4 42.5 7t51.5 3q25 0 57.5 -3t57.5 -7l133 -164l133 164q23 4 53.5 7t57.5 3q51 0 98 -10l-223 -261q-27 -4 -60.5 -5t-62.5 -1q-23 0 -55.5 2 t-61.5 7z" />
<glyph unicode="&#x11c;" horiz-adv-x="1394" d="M1032 762q25 4 51.5 6t53.5 2t53.5 -2t48.5 -6v-719q-43 -18 -94 -31.5t-106.5 -20.5t-111 -11.5t-104.5 -4.5q-164 0 -295 51.5t-221 148.5t-138 236.5t-48 315.5t49 318.5t140 243t217 154.5t280 54q117 0 203 -15.5t155 -41.5q-4 -47 -17 -87t-32 -85 q-57 18 -123.5 32.5t-167.5 14.5q-109 0 -197.5 -39t-151 -114t-97.5 -184.5t-35 -250.5q0 -145 36 -250.5t101.5 -176.5t154.5 -104.5t198 -33.5q66 0 114.5 7t83.5 17v576zM1153 1595q-18 -4 -40.5 -6t-43.5 -2h-45q-23 0 -50.5 2t-43.5 6l-133 125l-133 -125 q-18 -4 -47 -6t-49 -2h-48q-20 0 -41.5 2t-41.5 6l241 222q23 4 53.5 6t65.5 2t64.5 -2t56.5 -6z" />
<glyph unicode="&#x11d;" horiz-adv-x="1124" d="M727 135q182 -4 264 -77.5t82 -202.5q0 -84 -43 -150.5t-118.5 -115t-179 -74t-224.5 -25.5q-211 0 -321.5 65.5t-110.5 206.5q0 84 45 151t117 105q-41 27 -69 67t-28 99q0 76 34 131.5t91 98.5q-68 47 -108.5 121.5t-40.5 169.5q0 78 28.5 145.5t83 117.5t134 78.5 t182.5 28.5q92 0 166.5 -26.5t128.5 -67.5q41 33 110.5 54.5t153.5 21.5q8 -39 8 -86q0 -23 -2 -47.5t-6 -49.5h-184q23 -35 35 -75.5t12 -93.5q0 -84 -31 -152t-87 -116t-134 -73.5t-170 -25.5q-84 0 -152 18q-29 -16 -56.5 -50t-27.5 -73q0 -37 26.5 -64.5t119.5 -29.5z M451 -27h-7q-87 0 -132 -49q-46 -51 -46 -123q0 -45 18.5 -73.5t52.5 -46t80 -24.5t101 -7q164 0 256 54t92 136q0 61 -39 94t-143 35zM545 485q111 0 164 61.5t53 158.5q0 98 -53.5 160.5t-163.5 62.5q-111 0 -163 -62.5t-52 -160.5q0 -96 52 -158t163 -62zM903 1217 q-18 -4 -42 -6.5t-50 -2.5q-27 0 -58.5 2t-58.5 7l-133 163l-133 -163q-23 -4 -52.5 -6.5t-56.5 -2.5q-59 0 -100 9l223 260q27 4 60.5 6t64.5 2q23 0 54.5 -2t60.5 -8z" />
<glyph unicode="&#x11e;" horiz-adv-x="1394" d="M1032 762q25 4 51.5 6t53.5 2t53.5 -2t48.5 -6v-719q-43 -18 -94 -31.5t-106.5 -20.5t-111 -11.5t-104.5 -4.5q-164 0 -295 51.5t-221 148.5t-138 236.5t-48 315.5t49 318.5t140 243t217 154.5t280 54q117 0 203 -15.5t155 -41.5q-4 -47 -17 -87t-32 -85 q-57 18 -123.5 32.5t-167.5 14.5q-109 0 -197.5 -39t-151 -114t-97.5 -184.5t-35 -250.5q0 -145 36 -250.5t101.5 -176.5t154.5 -104.5t198 -33.5q66 0 114.5 7t83.5 17v576zM782 1583q-47 0 -103.5 8t-106.5 35t-87 74t-45 125q23 4 44 7t44 3q25 0 47.5 -3t44.5 -7 q6 -45 41 -78t121 -33t121 33t41 78q51 10 94 10q23 0 43 -3l45 -7q-8 -78 -46 -125t-88 -74t-106.5 -35t-103.5 -8z" />
<glyph unicode="&#x11f;" horiz-adv-x="1124" d="M727 135q182 -4 264 -77.5t82 -202.5q0 -84 -43 -150.5t-118.5 -115t-179 -74t-224.5 -25.5q-211 0 -321.5 65.5t-110.5 206.5q0 84 45 151t117 105q-41 27 -69 67t-28 99q0 76 34 131.5t91 98.5q-68 47 -108.5 121.5t-40.5 169.5q0 78 28.5 145.5t83 117.5t134 78.5 t182.5 28.5q92 0 166.5 -26.5t128.5 -67.5q41 33 110.5 54.5t153.5 21.5q8 -39 8 -86q0 -23 -2 -47.5t-6 -49.5h-184q23 -35 35 -75.5t12 -93.5q0 -84 -31 -152t-87 -116t-134 -73.5t-170 -25.5q-84 0 -152 18q-29 -16 -56.5 -50t-27.5 -73q0 -37 26.5 -64.5t119.5 -29.5z M451 -27h-7q-87 0 -132 -49q-46 -51 -46 -123q0 -45 18.5 -73.5t52.5 -46t80 -24.5t101 -7q164 0 256 54t92 136q0 61 -39 94t-143 35zM545 485q111 0 164 61.5t53 158.5q0 98 -53.5 160.5t-163.5 62.5q-111 0 -163 -62.5t-52 -160.5q0 -96 52 -158t163 -62zM559 1200 q-47 0 -101.5 11.5t-103.5 42t-86 84t-47 137.5q23 6 47.5 8t46.5 2q23 0 44.5 -3t43.5 -7q2 -25 11.5 -48.5t28 -43t46 -32t70.5 -12.5t70.5 12.5t46 32t27 43t12.5 48.5q25 4 47 7t45 3t46 -2t44 -8q-10 -84 -47 -137.5t-86 -84t-103.5 -42t-101.5 -11.5z" />
<glyph unicode="&#x120;" horiz-adv-x="1394" d="M1032 762q25 4 51.5 6t53.5 2t53.5 -2t48.5 -6v-719q-43 -18 -94 -31.5t-106.5 -20.5t-111 -11.5t-104.5 -4.5q-164 0 -295 51.5t-221 148.5t-138 236.5t-48 315.5t49 318.5t140 243t217 154.5t280 54q117 0 203 -15.5t155 -41.5q-4 -47 -17 -87t-32 -85 q-57 18 -123.5 32.5t-167.5 14.5q-109 0 -197.5 -39t-151 -114t-97.5 -184.5t-35 -250.5q0 -145 36 -250.5t101.5 -176.5t154.5 -104.5t198 -33.5q66 0 114.5 7t83.5 17v576zM690 1614q-8 47 -8 104q0 27 2 53.5t6 53.5q29 6 56.5 8t53.5 2q27 0 55.5 -2t57.5 -8 q8 -47 8 -105q0 -27 -2 -53.5t-6 -52.5q-29 -6 -56.5 -8t-54.5 -2t-55 2t-57 8z" />
<glyph unicode="&#x121;" horiz-adv-x="1124" d="M727 135q182 -4 264 -77.5t82 -202.5q0 -84 -43 -150.5t-118.5 -115t-179 -74t-224.5 -25.5q-211 0 -321.5 65.5t-110.5 206.5q0 84 45 151t117 105q-41 27 -69 67t-28 99q0 76 34 131.5t91 98.5q-68 47 -108.5 121.5t-40.5 169.5q0 78 28.5 145.5t83 117.5t134 78.5 t182.5 28.5q92 0 166.5 -26.5t128.5 -67.5q41 33 110.5 54.5t153.5 21.5q8 -39 8 -86q0 -23 -2 -47.5t-6 -49.5h-184q23 -35 35 -75.5t12 -93.5q0 -84 -31 -152t-87 -116t-134 -73.5t-170 -25.5q-84 0 -152 18q-29 -16 -56.5 -50t-27.5 -73q0 -37 26.5 -64.5t119.5 -29.5z M451 -27h-7q-87 0 -132 -49q-46 -51 -46 -123q0 -45 18.5 -73.5t52.5 -46t80 -24.5t101 -7q164 0 256 54t92 136q0 61 -39 94t-143 35zM545 485q111 0 164 61.5t53 158.5q0 98 -53.5 160.5t-163.5 62.5q-111 0 -163 -62.5t-52 -160.5q0 -96 52 -158t163 -62zM428 1243 q-4 29 -6.5 56.5t-2.5 56.5q0 27 2.5 55.5t6.5 56.5q29 4 58.5 7.5t57.5 3.5q29 0 59.5 -3t59.5 -8q4 -29 6 -56.5t2 -55.5q0 -27 -2 -55.5t-6 -57.5q-29 -4 -58.5 -6t-58.5 -2t-59 2t-59 6z" />
<glyph unicode="&#x122;" horiz-adv-x="1394" d="M1032 762q25 4 51.5 6t53.5 2t53.5 -2t48.5 -6v-719q-43 -18 -94 -31.5t-106.5 -20.5t-111 -11.5t-104.5 -4.5q-164 0 -295 51.5t-221 148.5t-138 236.5t-48 315.5t49 318.5t140 243t217 154.5t280 54q117 0 203 -15.5t155 -41.5q-4 -47 -17 -87t-32 -85 q-57 18 -123.5 32.5t-167.5 14.5q-109 0 -197.5 -39t-151 -114t-97.5 -184.5t-35 -250.5q0 -145 36 -250.5t101.5 -176.5t154.5 -104.5t198 -33.5q66 0 114.5 7t83.5 17v576zM826 -487q-47 -10 -88 -11q-23 0 -44.5 3t-46.5 8l93 354q23 4 49 6t51 2h20q23 0 44.5 -2 t44.5 -6z" />
<glyph unicode="&#x123;" horiz-adv-x="1124" d="M727 135q182 -4 264 -77.5t82 -202.5q0 -84 -43 -150.5t-118.5 -115t-179 -74t-224.5 -25.5q-211 0 -321.5 65.5t-110.5 206.5q0 84 45 151t117 105q-41 27 -69 67t-28 99q0 76 34 131.5t91 98.5q-68 47 -108.5 121.5t-40.5 169.5q0 78 28.5 145.5t83 117.5t134 78.5 t182.5 28.5q92 0 166.5 -26.5t128.5 -67.5q41 33 110.5 54.5t153.5 21.5q8 -39 8 -86q0 -23 -2 -47.5t-6 -49.5h-184q23 -35 35 -75.5t12 -93.5q0 -84 -31 -152t-87 -116t-134 -73.5t-170 -25.5q-84 0 -152 18q-29 -16 -56.5 -50t-27.5 -73q0 -37 26.5 -64.5t119.5 -29.5z M451 -27h-7q-87 0 -132 -49q-46 -51 -46 -123q0 -45 18.5 -73.5t52.5 -46t80 -24.5t101 -7q164 0 256 54t92 136q0 61 -39 94t-143 35zM545 485q111 0 164 61.5t53 158.5q0 98 -53.5 160.5t-163.5 62.5q-111 0 -163 -62.5t-52 -160.5q0 -96 52 -158t163 -62zM647 1186 q-27 -6 -51.5 -8t-49.5 -2q-29 0 -56.5 2t-57.5 8l170 293q25 4 48 6t48 2q53 0 100 -8z" />
<glyph unicode="&#x124;" horiz-adv-x="1404" d="M180 1473q25 4 51.5 6t53.5 2t53.5 -2t50.5 -6v-607h627v607q23 4 49.5 6t52.5 2q27 0 54.5 -2t52.5 -6v-1473q-23 -4 -49.5 -6t-55.5 -2q-27 0 -54.5 2t-49.5 6v682h-627v-682q-25 -4 -50.5 -6t-53.5 -2q-27 0 -54.5 2t-50.5 6v1473zM1056 1595q-18 -4 -40.5 -6 t-43.5 -2h-45q-23 0 -50.5 2t-43.5 6l-133 125l-133 -125q-18 -4 -47 -6t-49 -2h-48q-20 0 -41.5 2t-41.5 6l241 222q23 4 53.5 6t65.5 2t64.5 -2t56.5 -6z" />
<glyph unicode="&#x125;" horiz-adv-x="1183" d="M162 1501q23 4 50.5 6t49.5 2q23 0 51.5 -2t51.5 -6v-610q18 29 45.5 61.5t67.5 60t92.5 45t115.5 17.5q180 0 267 -103.5t87 -305.5v-666q-23 -4 -50 -6t-50 -2t-50.5 2t-49.5 6v610q0 145 -48.5 214t-146.5 69q-55 0 -106.5 -19.5t-90 -61.5t-61 -109.5t-22.5 -163.5 v-539q-23 -4 -51.5 -6t-51.5 -2q-20 0 -49 2t-51 6v1501zM844 1606q-18 -4 -42 -6.5t-50 -2.5q-27 0 -58.5 2t-58.5 7l-133 163l-133 -163q-23 -4 -52.5 -6.5t-56.5 -2.5q-59 0 -100 9l223 260q27 4 60.5 6t64.5 2q23 0 54.5 -2t60.5 -8z" />
<glyph unicode="&#x126;" horiz-adv-x="1474" d="M215 1092h-166q-4 16 -5 36.5t-1 38.5t1 40t5 38h166v228q25 4 52.5 6t51.5 2q27 0 53.5 -2t51.5 -6v-228h627v228q25 4 50 6t54 2q25 0 52.5 -2t52.5 -6v-228h165q4 -16 6.5 -36.5t2.5 -39.5q0 -18 -2 -39.5t-7 -37.5h-165v-1092q-23 -4 -49.5 -6t-55.5 -2 q-27 0 -53.5 2t-50.5 6v682h-627v-682q-25 -4 -50.5 -6t-51.5 -2q-29 0 -56.5 2t-50.5 6v1092zM1051 866v226h-627v-226h627z" />
<glyph unicode="&#x127;" horiz-adv-x="1206" d="M184 1194h-149q-4 12 -6 31.5t-2 36.5q0 16 2 36.5t6 34.5h149v168q23 4 50.5 6t50.5 2q20 0 48.5 -2t51.5 -6v-168h299q4 -14 6 -33.5t2 -35.5t-2 -37t-6 -33h-299v-303q18 29 47 61.5t69 60t92 45t116 17.5q180 0 267 -103.5t87 -305.5v-666q-23 -4 -50.5 -6t-49.5 -2 q-23 0 -51.5 2t-51.5 6v610q0 145 -47 214t-145 69q-57 0 -108.5 -19.5t-90.5 -61.5t-61.5 -109.5t-22.5 -163.5v-539q-23 -4 -50.5 -6t-49.5 -2q-20 0 -49 2t-52 6v1194z" />
<glyph unicode="&#x128;" horiz-adv-x="569" d="M180 1473q25 4 51.5 6t53.5 2t53.5 -2t50.5 -6v-1473q-25 -4 -50.5 -6t-53.5 -2q-27 0 -54.5 2t-50.5 6v1473zM-86 1759q33 37 86.5 71t120.5 34q43 0 86 -16.5t84 -35.5l81 -34q40 -16 81 -17q39 0 68.5 15.5t70.5 54.5q47 -57 68 -121q-35 -35 -87.5 -66.5 t-117.5 -31.5q-45 0 -88 15t-84 34.5t-81 35t-79 15.5q-43 0 -72.5 -17.5t-68.5 -52.5q-23 29 -41.5 56.5t-26.5 60.5z" />
<glyph unicode="&#x129;" horiz-adv-x="589" d="M-59 1368q31 41 80 70.5t116 29.5q43 0 82 -14t75 -30.5t73 -31t78 -14.5q35 0 64.5 12.5t72.5 51.5q45 -55 65 -125q-33 -39 -83 -67.5t-115 -28.5q-43 0 -82 14t-76 30.5t-73 31t-75 14.5q-41 0 -69.5 -14.5t-69.5 -49.5q-23 29 -39 58.5t-24 62.5zM225 891h-133 q-4 16 -6 37.5t-2 42.5q0 20 2 41.5t6 38.5h332v-1051q-23 -4 -50.5 -6t-49.5 -2q-20 0 -48 2t-51 6v891z" />
<glyph unicode="&#x12a;" horiz-adv-x="569" d="M180 1473q25 4 51.5 6t53.5 2t53.5 -2t50.5 -6v-1473q-25 -4 -50.5 -6t-53.5 -2q-27 0 -54.5 2t-50.5 6v1473zM615 1780q4 -16 5 -38t1 -40t-1 -39t-5 -37h-654q-4 16 -6 36.5t-2 39.5q0 18 2 39.5t6 38.5h654z" />
<glyph unicode="&#x12b;" horiz-adv-x="589" d="M555 1421q4 -16 6.5 -36.5t2.5 -38.5t-2 -39t-7 -37h-552q-4 16 -6.5 36.5t-2.5 39.5q0 16 2 37.5t7 37.5h552zM225 891h-133q-4 16 -6 37.5t-2 42.5q0 20 2 41.5t6 38.5h332v-1051q-23 -4 -50.5 -6t-49.5 -2q-20 0 -48 2t-51 6v891z" />
<glyph unicode="&#x12c;" horiz-adv-x="569" d="M180 1473q25 4 51.5 6t53.5 2t53.5 -2t50.5 -6v-1473q-25 -4 -50.5 -6t-53.5 -2q-27 0 -54.5 2t-50.5 6v1473zM287 1583q-47 0 -103.5 8t-106.5 35t-87 74t-45 125q23 4 44 7t44 3q25 0 47.5 -3t44.5 -7q6 -45 41 -78t121 -33t121 33t41 78q51 10 94 10q23 0 43 -3l45 -7 q-8 -78 -46 -125t-88 -74t-106.5 -35t-103.5 -8z" />
<glyph unicode="&#x12d;" horiz-adv-x="589" d="M291 1200q-47 0 -101.5 11.5t-103.5 42t-86 84t-47 137.5q23 6 47.5 8t46.5 2q23 0 44.5 -3t43.5 -7q2 -25 11.5 -48.5t28 -43t46 -32t70.5 -12.5t70.5 12.5t46 32t27 43t12.5 48.5q25 4 47 7t45 3t46 -2t44 -8q-10 -84 -47 -137.5t-86 -84t-103.5 -42t-101.5 -11.5z M225 891h-133q-4 16 -6 37.5t-2 42.5q0 20 2 41.5t6 38.5h332v-1051q-23 -4 -50.5 -6t-49.5 -2q-20 0 -48 2t-51 6v891z" />
<glyph unicode="&#x12e;" horiz-adv-x="569" d="M180 1473q25 4 51.5 6t53.5 2t53.5 -2t50.5 -6v-1473q-74 -51 -125 -117.5t-51 -136.5q0 -47 28.5 -74.5t86.5 -27.5q18 0 44.5 4t61.5 14q16 -27 23.5 -64.5t7.5 -68.5q-29 -10 -72 -17.5t-104 -7.5q-49 0 -96.5 11.5t-85 36t-61 63.5t-23.5 96q0 76 48 152t128 135 l-19 2v1473z" />
<glyph unicode="&#x12f;" horiz-adv-x="589" d="M225 891h-133q-4 16 -6 37.5t-2 42.5q0 20 2 41.5t6 38.5h332v-1051q-72 -47 -120 -116.5t-48 -133.5q0 -49 27.5 -79.5t85.5 -30.5q18 0 42.5 3t57.5 13q14 -25 21.5 -61.5t9.5 -67.5q-29 -10 -75 -16.5t-95 -6.5t-96.5 11.5t-83 36t-58 63.5t-22.5 94q0 72 46 151 t124 138l-15 2v891zM180 1282q-4 25 -5 53.5t-1 50.5q0 23 1 51.5t5 51.5q27 4 57.5 6t53.5 2t53.5 -2t54.5 -6q4 -23 5.5 -51.5t1.5 -51.5t-1.5 -51t-5.5 -53q-25 -4 -54.5 -6t-51.5 -2q-25 0 -55.5 2t-57.5 6z" />
<glyph unicode="&#x130;" horiz-adv-x="569" d="M180 1473q25 4 51.5 6t53.5 2t53.5 -2t50.5 -6v-1473q-25 -4 -50.5 -6t-53.5 -2q-27 0 -54.5 2t-50.5 6v1473zM176 1614q-8 47 -8 104q0 27 2 53.5t6 53.5q29 6 56.5 8t53.5 2q27 0 55.5 -2t57.5 -8q8 -47 8 -105q0 -27 -2 -53.5t-6 -52.5q-29 -6 -56.5 -8t-54.5 -2 t-55 2t-57 8z" />
<glyph unicode="&#x131;" horiz-adv-x="589" d="M225 891h-133q-4 16 -6 37.5t-2 42.5q0 20 2 41.5t6 38.5h332v-1051q-23 -4 -50.5 -6t-49.5 -2q-20 0 -48 2t-51 6v891z" />
<glyph unicode="&#x132;" horiz-adv-x="1372" d="M180 1473q25 4 51.5 6t53.5 2t53.5 -2t50.5 -6v-1473q-25 -4 -50.5 -6t-53.5 -2q-27 0 -54.5 2t-50.5 6v1473zM991 1290h-258q-4 20 -6 45t-2 47q0 23 2 46.5t6 44.5h467v-1063q0 -123 -26.5 -207t-78 -134.5t-125 -72t-165.5 -21.5q-49 0 -98.5 7.5t-90.5 17.5 q0 41 8.5 86t24.5 92l56.5 -13t66.5 -7q37 0 75 6t70.5 26.5t53 61.5t20.5 110v928z" />
<glyph unicode="&#x133;" horiz-adv-x="1183" d="M225 891h-133q-4 16 -6 37.5t-2 42.5q0 20 2 41.5t6 38.5h332v-1051q-23 -4 -50.5 -6t-49.5 -2q-20 0 -48 2t-51 6v891zM180 1282q-4 25 -5 53.5t-1 50.5q0 23 1 51.5t5 51.5q27 4 57.5 6t53.5 2t53.5 -2t54.5 -6q4 -23 5.5 -51.5t1.5 -51.5t-1.5 -51t-5.5 -53 q-25 -4 -54.5 -6t-51.5 -2q-25 0 -55.5 2t-57.5 6zM819 891h-133q-4 16 -6 37.5t-2 42.5q0 20 2 41.5t6 38.5h332v-1110q0 -92 -24.5 -153.5t-68.5 -99.5t-103.5 -54.5t-129.5 -16.5q-111 0 -186 27q2 39 10.5 79.5t22.5 73.5q49 -16 115 -16q27 0 55.5 4t53 21.5t40.5 52.5 t16 96v936zM770 1284q-4 29 -6 54.5t-2 47.5q0 23 2 48.5t6 52.5q27 4 57.5 7t53.5 3t52.5 -3t53.5 -7q4 -27 6.5 -52.5t2.5 -48.5t-2.5 -48t-6.5 -54q-25 -4 -54.5 -7t-51.5 -3q-23 0 -53.5 3t-57.5 7z" />
<glyph unicode="&#x134;" horiz-adv-x="811" d="M432 1290h-258q-4 20 -6 45t-2 47q0 23 2 46.5t6 44.5h467v-1063q0 -123 -26.5 -207t-78 -134.5t-125 -72t-165.5 -21.5q-49 0 -98.5 7.5t-90.5 17.5q0 41 8.5 86t24.5 92l56.5 -13t66.5 -7q37 0 75 6t70.5 26.5t53 61.5t20.5 110v928zM786 1595q-18 -4 -40.5 -6 t-43.5 -2h-45q-23 0 -50.5 2t-43.5 6l-133 125l-133 -125q-18 -4 -47 -6t-49 -2h-48q-20 0 -41.5 2t-41.5 6l241 222q23 4 53.5 6t65.5 2t64.5 -2t56.5 -6z" />
<glyph unicode="&#x135;" horiz-adv-x="593" d="M231 889h-135q-4 16 -6 37.5t-2 42.5q0 20 2 41.5t6 40.5h334v-1110q0 -90 -24.5 -151.5t-68.5 -99.5t-103.5 -54.5t-129.5 -16.5q-59 0 -104 7t-80 18q0 37 9.5 80t23.5 73q23 -8 49.5 -12t60.5 -4q27 0 57 5t54.5 22.5t40.5 52.5t16 94v934zM625 1217q-18 -4 -42 -6.5 t-50 -2.5q-27 0 -58.5 2t-58.5 7l-133 163l-133 -163q-23 -4 -52.5 -6.5t-56.5 -2.5q-59 0 -100 9l223 260q27 4 60.5 6t64.5 2q23 0 54.5 -2t60.5 -8z" />
<glyph unicode="&#x136;" horiz-adv-x="1236" d="M457 748l473 725q29 4 56.5 6t49.5 2q27 0 57.5 -2t63.5 -6l-467 -707l526 -766q-33 -4 -64.5 -6t-60.5 -2q-25 0 -53 2t-59 6zM186 1473q25 4 51.5 6t53.5 2t53.5 -2t50.5 -6v-1473q-25 -4 -51.5 -6t-52.5 -2q-29 0 -55.5 2t-49.5 6v1473zM678 -487q-47 -10 -88 -11 q-23 0 -44.5 3t-46.5 8l93 354q23 4 49 6t51 2h20q23 0 44.5 -2t44.5 -6z" />
<glyph unicode="&#x137;" horiz-adv-x="1056" d="M160 1501q23 4 50 6t50 2t51.5 -2t50.5 -6v-1501q-23 -4 -51 -6t-51 -2t-50.5 2t-49.5 6v1501zM418 545l334 506q27 4 53 6t55 2q31 0 58.5 -2t56.5 -6l-334 -492l391 -559q-29 -4 -55.5 -6t-54.5 -2q-29 0 -58 2t-57 6zM572 -487l-42.5 -7.5t-41.5 -3.5q-23 0 -45.5 3 t-44.5 8l90 354q18 2 38.5 5t43.5 3h41q20 0 38.5 -2t40.5 -6z" />
<glyph unicode="&#x138;" horiz-adv-x="1073" d="M156 1059q23 4 50 6t50 2t51.5 -2t50.5 -6v-1059q-23 -4 -51 -6t-51 -2t-50.5 2t-49.5 6v1059zM416 543l362 508q29 4 55.5 6t55.5 2t59.5 -2t59.5 -6l-363 -496l420 -555q-29 -4 -57.5 -6t-57.5 -2t-57.5 2t-58.5 6z" />
<glyph unicode="&#x139;" horiz-adv-x="1013" d="M180 1473q23 4 48.5 6t54.5 2q27 0 53 -2t51 -6v-1289h578q4 -23 5 -47t1 -45q0 -49 -6 -92h-785v1473zM379 1595q-27 -4 -55.5 -6t-56.5 -2q-29 0 -53.5 2t-53.5 6l217 222q33 4 70 7t74 3q39 0 73.5 -3t63.5 -7z" />
<glyph unicode="&#x13a;" horiz-adv-x="610" d="M160 1501q23 4 50.5 6t49.5 2q23 0 50.5 -2t49.5 -6v-1184q0 -57 10.5 -89.5t28 -50t41 -22.5t49.5 -5q18 0 42 2t40 6q18 -72 19 -156q-29 -10 -70 -13t-76 -3q-59 0 -110 14t-90 47t-61.5 88t-22.5 137v1229zM340 1595q-27 -4 -55.5 -6t-56.5 -2q-29 0 -53.5 2t-53.5 6 l217 222q33 4 70 7t74 3q39 0 73.5 -3t63.5 -7z" />
<glyph unicode="&#x13b;" horiz-adv-x="1013" d="M180 1473q23 4 48.5 6t54.5 2q27 0 53 -2t51 -6v-1289h578q4 -23 5 -47t1 -45q0 -49 -6 -92h-785v1473zM580 -487q-47 -10 -88 -11q-23 0 -44.5 3t-46.5 8l93 354q23 4 49 6t51 2h20q23 0 44.5 -2t44.5 -6z" />
<glyph unicode="&#x13c;" horiz-adv-x="610" d="M160 1501q23 4 50.5 6t49.5 2q23 0 50.5 -2t49.5 -6v-1184q0 -57 10.5 -89.5t28 -50t41 -22.5t49.5 -5q18 0 42 2t40 6q18 -72 19 -156q-29 -10 -70 -13t-76 -3q-59 0 -110 14t-90 47t-61.5 88t-22.5 137v1229zM400 -487l-42.5 -7.5t-41.5 -3.5q-23 0 -45.5 3t-44.5 8 l90 354q18 2 38.5 5t43.5 3h41q20 0 38.5 -2t40.5 -6z" />
<glyph unicode="&#x13d;" horiz-adv-x="995" d="M180 1473q23 4 48.5 6t54.5 2q27 0 53 -2t51 -6v-1289h578q4 -23 5 -47t1 -45q0 -49 -6 -92h-785v1473zM572 1474q33 8 94 8q25 0 50.5 -2t47.5 -6l-28 -416q-16 -4 -37 -6t-41 -2t-42 2t-44 6v416z" />
<glyph unicode="&#x13e;" horiz-adv-x="722" d="M160 1501q23 4 50.5 6t49.5 2q23 0 50.5 -2t49.5 -6v-1184q0 -57 10.5 -89.5t28 -50t41 -22.5t49.5 -5q18 0 42 2t40 6q18 -72 19 -156q-29 -10 -70 -13t-76 -3q-59 0 -110 14t-90 47t-61.5 88t-22.5 137v1229zM547 1501q33 8 94 8q25 0 50.5 -2t47.5 -6l-28 -416 q-16 -4 -37 -6t-41 -2t-42 2t-44 6v416z" />
<glyph unicode="&#x13f;" horiz-adv-x="1013" d="M180 1473q23 4 48.5 6t54.5 2q27 0 53 -2t51 -6v-1289h578q4 -23 5 -47t1 -45q0 -49 -6 -92h-785v1473zM678 703q-4 29 -6 55.5t-2 54.5q0 29 2 56.5t6 56.5q29 4 55.5 6t55.5 2t56.5 -2t55.5 -6q4 -29 6.5 -55.5t2.5 -55.5t-2.5 -56.5t-6.5 -55.5q-29 -4 -55.5 -6.5 t-54.5 -2.5q-29 0 -56.5 2.5t-56.5 6.5z" />
<glyph unicode="&#x140;" horiz-adv-x="757" d="M160 1501q23 4 50.5 6t49.5 2q23 0 50.5 -2t49.5 -6v-1184q0 -57 10.5 -89.5t28 -50t41 -22.5t49.5 -5q18 0 42 2t40 6q18 -72 19 -156q-29 -10 -70 -13t-76 -3q-59 0 -110 14t-90 47t-61.5 88t-22.5 137v1229zM530 682q-4 29 -6 55.5t-2 54.5q0 29 2 56.5t6 56.5 q29 4 55.5 6t55.5 2t56.5 -2t55.5 -6q4 -29 6.5 -55.5t2.5 -55.5t-2.5 -56.5t-6.5 -55.5q-29 -4 -55.5 -6.5t-54.5 -2.5q-29 0 -56.5 2.5t-56.5 6.5z" />
<glyph unicode="&#x141;" horiz-adv-x="1013" d="M178 537l-65 -47l-66 -46q-6 29 -9 49.5t-3 45.5q0 20 3 44.5t9 45.5l131 90v754q45 6 105 6q55 0 102 -6v-609l268 185q10 -47 11 -93q0 -25 -3.5 -47l-7.5 -45l-268 -184v-496h578q4 -23 6 -47t2 -45q0 -23 -2 -46t-6 -46h-785v537z" />
<glyph unicode="&#x142;" horiz-adv-x="610" d="M41 741q53 41 119 82v678q23 4 50.5 6t49.5 2q23 0 50.5 -2t49.5 -6v-536l150 104q6 -23 8 -45.5t2 -46.5q0 -25 -3 -45.5t-7 -42.5l-150 -105v-378q0 -90 7.5 -140.5t23 -77t40 -32.5t58.5 -6q18 0 42 2t40 6q10 -41 14.5 -84t4.5 -72q-29 -10 -70 -13t-76 -3 q-68 0 -121 16t-89.5 57t-55 112t-18.5 179v293q-66 -41 -119 -82q-6 29 -9 49.5t-3 42.5q0 20 3 44t9 44z" />
<glyph unicode="&#x143;" horiz-adv-x="1392" d="M180 1473q23 4 48.5 6t47.5 2q23 0 48.5 -2t48.5 -6l641 -1106v1106q25 4 51.5 6t52.5 2q23 0 47.5 -2t46.5 -6v-1473q-23 -4 -48 -6t-48 -2t-48.5 2t-47.5 6l-643 1100v-1100q-23 -4 -48.5 -6t-49.5 -2q-27 0 -52.5 2t-46.5 6v1473zM786 1595q-27 -4 -55.5 -6t-56.5 -2 q-29 0 -53.5 2t-53.5 6l217 222q33 4 70 7t74 3q39 0 73.5 -3t63.5 -7z" />
<glyph unicode="&#x144;" horiz-adv-x="1183" d="M164 1051q23 4 44 6t44 2t42 -2t42 -6q6 -31 12 -83.5t6 -86.5q20 35 52 69.5t73 62t94.5 45t116.5 17.5q180 0 266 -103.5t86 -305.5v-666q-23 -4 -51 -6t-51 -2t-50.5 2t-49.5 6v610q0 145 -45 214t-144 69q-57 0 -108 -20.5t-90 -63.5t-62.5 -111.5t-23.5 -165.5v-532 q-23 -4 -50.5 -6t-50.5 -2t-51.5 2t-50.5 6v1051zM655 1217q-23 -4 -49.5 -6.5t-59.5 -2.5q-23 0 -46 2t-48 7l236 260q31 4 63.5 6t67.5 2q37 0 67.5 -2t59.5 -6z" />
<glyph unicode="&#x145;" horiz-adv-x="1392" d="M180 1473q23 4 48.5 6t47.5 2q23 0 48.5 -2t48.5 -6l641 -1106v1106q25 4 51.5 6t52.5 2q23 0 47.5 -2t46.5 -6v-1473q-23 -4 -48 -6t-48 -2t-48.5 2t-47.5 6l-643 1100v-1100q-23 -4 -48.5 -6t-49.5 -2q-27 0 -52.5 2t-46.5 6v1473zM725 -487q-47 -10 -88 -11 q-23 0 -44.5 3t-46.5 8l93 354q23 4 49 6t51 2h20q23 0 44.5 -2t44.5 -6z" />
<glyph unicode="&#x146;" horiz-adv-x="1183" d="M164 1051q23 4 44 6t44 2t42 -2t42 -6q6 -31 12 -83.5t6 -86.5q20 35 52 69.5t73 62t94.5 45t116.5 17.5q180 0 266 -103.5t86 -305.5v-666q-23 -4 -51 -6t-51 -2t-50.5 2t-49.5 6v610q0 145 -45 214t-144 69q-57 0 -108 -20.5t-90 -63.5t-62.5 -111.5t-23.5 -165.5v-532 q-23 -4 -50.5 -6t-50.5 -2t-51.5 2t-50.5 6v1051zM607 -487l-42.5 -7.5t-41.5 -3.5q-23 0 -45.5 3t-44.5 8l90 354q18 2 38.5 5t43.5 3h41q20 0 38.5 -2t40.5 -6z" />
<glyph unicode="&#x147;" horiz-adv-x="1392" d="M180 1473q23 4 48.5 6t47.5 2q23 0 48.5 -2t48.5 -6l641 -1106v1106q25 4 51.5 6t52.5 2q23 0 47.5 -2t46.5 -6v-1473q-23 -4 -48 -6t-48 -2t-48.5 2t-47.5 6l-643 1100v-1100q-23 -4 -48.5 -6t-49.5 -2q-27 0 -52.5 2t-46.5 6v1473zM345 1817q18 2 40.5 5t43.5 3h45 q23 0 50 -3l44 -5l67 -64l66 -63l133 127l47 5q29 3 49 3h47q20 0 42 -3t42 -5l-241 -222q-23 -4 -53.5 -6t-65.5 -2t-64.5 2t-56.5 6z" />
<glyph unicode="&#x148;" horiz-adv-x="1183" d="M164 1051q23 4 44 6t44 2t42 -2t42 -6q6 -31 12 -83.5t6 -86.5q20 35 52 69.5t73 62t94.5 45t116.5 17.5q180 0 266 -103.5t86 -305.5v-666q-23 -4 -51 -6t-51 -2t-50.5 2t-49.5 6v610q0 145 -45 214t-144 69q-57 0 -108 -20.5t-90 -63.5t-62.5 -111.5t-23.5 -165.5v-532 q-23 -4 -50.5 -6t-50.5 -2t-51.5 2t-50.5 6v1051zM266 1475q20 4 42.5 7t51.5 3q25 0 57.5 -3t57.5 -7l133 -164l133 164q23 4 53.5 7t57.5 3q51 0 98 -10l-223 -261q-27 -4 -60.5 -5t-62.5 -1q-23 0 -55.5 2t-61.5 7z" />
<glyph unicode="&#x149;" horiz-adv-x="1196" d="M174 1051q23 4 44 6t44 2t42 -2t42 -6q6 -31 12 -83.5t6 -86.5q20 35 52 69.5t73 62t94.5 45t116.5 17.5q180 0 266 -103.5t86 -305.5v-666q-23 -4 -51 -6t-51 -2t-50.5 2t-49.5 6v610q0 145 -45 214t-144 69q-57 0 -108 -20.5t-90 -63.5t-62.5 -111.5t-23.5 -165.5v-532 q-23 -4 -50.5 -6t-50.5 -2t-51.5 2t-50.5 6v1051zM40 1501q14 4 40 6t55 2t58.5 -2t45.5 -6l-113 -334q-25 -4 -44 -6t-42 -2q-45 0 -83 8z" />
<glyph unicode="&#x14a;" horiz-adv-x="1392" d="M180 1473q23 4 48.5 6t47.5 2q23 0 48.5 -2t48.5 -6l641 -1106v1106q25 4 51.5 6t52.5 2q23 0 47.5 -2t46.5 -6v-1379q0 -45 -2 -85t-6 -81q-10 -88 -46 -145t-91 -90t-122.5 -46.5t-137.5 -13.5q-39 0 -85 5.5t-93 17.5q0 41 6 83t27 89q25 -8 57.5 -13t66.5 -5 q33 0 74 5t77 25.5t59.5 60.5t23.5 109l-643 1090v-1100q-23 -4 -48.5 -6t-49.5 -2q-27 0 -52.5 2t-46.5 6v1473z" />
<glyph unicode="&#x14b;" horiz-adv-x="1183" d="M164 1051q23 4 44 6t44 2t42 -2t42 -6q6 -31 12 -83.5t6 -86.5q20 35 52 69.5t73 62t94.5 45t116.5 17.5q180 0 266 -103.5t86 -305.5v-725q0 -92 -24.5 -153.5t-68.5 -99.5t-104.5 -54.5t-129.5 -16.5q-111 0 -187 27q2 39 10.5 79.5t22.5 73.5q49 -16 115 -16 q25 0 54.5 4t54 20.5t41 49t16.5 88.5v667q0 145 -46 214t-145 69q-57 0 -108 -20.5t-90 -63.5t-62.5 -111.5t-23.5 -165.5v-532q-23 -4 -50.5 -6t-50.5 -2t-51.5 2t-50.5 6v1051z" />
<glyph unicode="&#x14c;" horiz-adv-x="1482" d="M744 -25q-160 0 -277 56.5t-193.5 158t-114.5 240.5t-38 305t38 305.5t114.5 240.5t193.5 158.5t277 57.5t276.5 -57.5t193 -158.5t113.5 -240.5t37 -305.5t-37 -305t-113.5 -240.5t-193 -158t-276.5 -56.5zM744 156q102 0 176.5 40t124 115.5t74 182t24.5 241.5 q0 133 -24.5 240.5t-74 182.5t-124 115t-176.5 40t-177 -40t-124.5 -115t-74 -182.5t-24.5 -240.5q0 -135 24.5 -241.5t74 -182t124.5 -115.5t177 -40zM1067 1780q4 -16 5 -38t1 -40t-1 -39t-5 -37h-654q-4 16 -6 36.5t-2 39.5q0 18 2 39.5t6 38.5h654z" />
<glyph unicode="&#x14d;" horiz-adv-x="1181" d="M590 -25q-123 0 -215 42t-153.5 116t-91.5 174.5t-30 216.5q0 117 30 217.5t91.5 174t153.5 116.5t215 43t215 -43t153.5 -116.5t91 -174t29.5 -217.5t-29.5 -217t-91 -174t-153.5 -116t-215 -42zM590 137q141 0 208.5 102.5t67.5 284.5t-67.5 283.5t-208.5 101.5 t-208 -101t-67 -284q0 -182 67 -284.5t208 -102.5zM864 1421q4 -16 6.5 -36.5t2.5 -38.5t-2 -39t-7 -37h-552q-4 16 -6.5 36.5t-2.5 39.5q0 16 2 37.5t7 37.5h552z" />
<glyph unicode="&#x14e;" horiz-adv-x="1482" d="M744 -25q-160 0 -277 56.5t-193.5 158t-114.5 240.5t-38 305t38 305.5t114.5 240.5t193.5 158.5t277 57.5t276.5 -57.5t193 -158.5t113.5 -240.5t37 -305.5t-37 -305t-113.5 -240.5t-193 -158t-276.5 -56.5zM744 156q102 0 176.5 40t124 115.5t74 182t24.5 241.5 q0 133 -24.5 240.5t-74 182.5t-124 115t-176.5 40t-177 -40t-124.5 -115t-74 -182.5t-24.5 -240.5q0 -135 24.5 -241.5t74 -182t124.5 -115.5t177 -40zM739 1583q-47 0 -103.5 8t-106.5 35t-87 74t-45 125q23 4 44 7t44 3q25 0 47.5 -3t44.5 -7q6 -45 41 -78t121 -33t121 33 t41 78q51 10 94 10q23 0 43 -3l45 -7q-8 -78 -46 -125t-88 -74t-106.5 -35t-103.5 -8z" />
<glyph unicode="&#x14f;" horiz-adv-x="1181" d="M590 -25q-123 0 -215 42t-153.5 116t-91.5 174.5t-30 216.5q0 117 30 217.5t91.5 174t153.5 116.5t215 43t215 -43t153.5 -116.5t91 -174t29.5 -217.5t-29.5 -217t-91 -174t-153.5 -116t-215 -42zM590 137q141 0 208.5 102.5t67.5 284.5t-67.5 283.5t-208.5 101.5 t-208 -101t-67 -284q0 -182 67 -284.5t208 -102.5zM588 1200q-47 0 -101.5 11.5t-103.5 42t-86 84t-47 137.5q23 6 47.5 8t46.5 2q23 0 44.5 -3t43.5 -7q2 -25 11.5 -48.5t28 -43t46 -32t70.5 -12.5t70.5 12.5t46 32t27 43t12.5 48.5q25 4 47 7t45 3t46 -2t44 -8 q-10 -84 -47 -137.5t-86 -84t-103.5 -42t-101.5 -11.5z" />
<glyph unicode="&#x150;" horiz-adv-x="1482" d="M744 -25q-160 0 -277 56.5t-193.5 158t-114.5 240.5t-38 305t38 305.5t114.5 240.5t193.5 158.5t277 57.5t276.5 -57.5t193 -158.5t113.5 -240.5t37 -305.5t-37 -305t-113.5 -240.5t-193 -158t-276.5 -56.5zM744 156q102 0 176.5 40t124 115.5t74 182t24.5 241.5 q0 133 -24.5 240.5t-74 182.5t-124 115t-176.5 40t-177 -40t-124.5 -115t-74 -182.5t-24.5 -240.5q0 -135 24.5 -241.5t74 -182t124.5 -115.5t177 -40zM608 1593q-25 -4 -53.5 -6t-58.5 -2q-23 0 -47.5 2t-53.5 6l205 226q33 6 66 7t61 1q29 0 59.5 -2t63.5 -6zM1028 1593 q-23 -4 -52.5 -6t-57.5 -2q-23 0 -47.5 2t-53.5 6l203 226q35 6 66.5 7t60.5 1t60.5 -2t64.5 -6z" />
<glyph unicode="&#x151;" horiz-adv-x="1181" d="M590 -25q-123 0 -215 42t-153.5 116t-91.5 174.5t-30 216.5q0 117 30 217.5t91.5 174t153.5 116.5t215 43t215 -43t153.5 -116.5t91 -174t29.5 -217.5t-29.5 -217t-91 -174t-153.5 -116t-215 -42zM590 137q141 0 208.5 102.5t67.5 284.5t-67.5 283.5t-208.5 101.5 t-208 -101t-67 -284q0 -182 67 -284.5t208 -102.5zM453 1217q-23 -4 -50.5 -6.5t-58.5 -2.5q-23 0 -46.5 2t-47.5 7l231 260q31 4 62.5 6t60.5 2t59.5 -2t61.5 -6zM846 1217q-23 -4 -50.5 -6.5t-58.5 -2.5q-23 0 -46 2t-48 7l234 260q29 4 60.5 6t59.5 2q31 0 60.5 -2 t60.5 -6z" />
<glyph unicode="&#x152;" horiz-adv-x="1892" d="M1798 182q4 -20 6 -43.5t2 -46.5t-2 -47.5t-6 -44.5h-790q-55 -12 -128 -18.5t-132 -6.5q-160 0 -279 56.5t-197.5 158t-118.5 240.5t-40 305t41 305.5t120.5 240.5t199.5 158.5t280 57.5q59 0 124.5 -5t118.5 -19h785q4 -20 6 -44t2 -47t-2 -47t-6 -45h-600v-422h479 q4 -20 6 -43.5t2 -46.5t-2 -47t-6 -45h-479v-504h616zM973 1288q-47 12 -99.5 18.5t-117.5 6.5q-102 0 -180 -40t-131.5 -115t-81 -182.5t-27.5 -240.5q0 -135 25.5 -241.5t78 -182t129 -115.5t179.5 -40q68 0 123 6t102 22v1104z" />
<glyph unicode="&#x153;" horiz-adv-x="1882" d="M1073 475q4 -172 87 -252t249 -80q74 0 138.5 13.5t129.5 38.5q14 -31 25.5 -75t13.5 -87q-70 -29 -148.5 -43.5t-176.5 -14.5q-154 0 -259.5 57.5t-162.5 162.5q-59 -104 -150.5 -162t-224.5 -58q-121 0 -212 42t-152.5 116t-92.5 174.5t-31 216.5q0 117 31 217.5 t92.5 174t152.5 116.5t212 43q131 0 225 -56t154 -155q53 98 147 154.5t226 56.5q104 0 185 -38t136 -104.5t84 -154.5t29 -188q0 -29 -2 -60.5t-6 -54.5h-699zM594 137q141 0 212 102.5t71 284.5t-71 283.5t-212 101.5t-211 -101t-70 -284q0 -182 70 -284.5t211 -102.5z M1583 627q-2 125 -59.5 204.5t-180.5 79.5q-119 0 -186 -74.5t-82 -209.5h508z" />
<glyph unicode="&#x154;" horiz-adv-x="1222" d="M184 1475q45 4 82 8t73 7t75 5t86 2q104 0 206.5 -20.5t182.5 -71.5t130 -138t50 -220q0 -80 -26.5 -145.5t-67.5 -117t-93.5 -89.5t-101.5 -62l-24 -12l428 -621q-55 -6 -125 -6q-55 0 -111 6l-471 682v8l17 4q55 14 116.5 39t113.5 65t87 96t35 136q0 147 -87 219 t-235 72q-35 0 -64.5 -2t-66.5 -6v-1313q-23 -2 -50.5 -4t-51.5 -2q-25 0 -53.5 1t-53.5 5v1475zM637 1595q-27 -4 -55.5 -6t-56.5 -2q-29 0 -53.5 2t-53.5 6l217 222q33 4 70 7t74 3q39 0 73.5 -3t63.5 -7z" />
<glyph unicode="&#x155;" horiz-adv-x="761" d="M164 1051q23 4 43 6t43 2t45 -2t41 -6q6 -31 12 -81t6 -85q43 70 114 121t181 51q16 0 33.5 -1t30.5 -3q4 -18 6 -39t2 -43q0 -25 -3 -51.5t-7 -51.5q-16 4 -34 4h-28q-55 0 -105 -15t-90 -54t-63.5 -106.5t-23.5 -174.5v-522q-23 -4 -50.5 -6t-50.5 -2t-50.5 2t-51.5 6 v1051zM438 1217q-23 -4 -49.5 -6.5t-59.5 -2.5q-23 0 -46 2t-48 7l236 260q31 4 63.5 6t67.5 2q37 0 67.5 -2t59.5 -6z" />
<glyph unicode="&#x156;" horiz-adv-x="1222" d="M184 1475q45 4 82 8t73 7t75 5t86 2q104 0 206.5 -20.5t182.5 -71.5t130 -138t50 -220q0 -80 -26.5 -145.5t-67.5 -117t-93.5 -89.5t-101.5 -62l-24 -12l428 -621q-55 -6 -125 -6q-55 0 -111 6l-471 682v8l17 4q55 14 116.5 39t113.5 65t87 96t35 136q0 147 -87 219 t-235 72q-35 0 -64.5 -2t-66.5 -6v-1313q-23 -2 -50.5 -4t-51.5 -2q-25 0 -53.5 1t-53.5 5v1475zM664 -487l-42.5 -7.5t-41.5 -3.5q-23 0 -45.5 3t-44.5 8l90 354q18 2 38.5 5t43.5 3h41q20 0 38.5 -2t40.5 -6z" />
<glyph unicode="&#x157;" horiz-adv-x="761" d="M164 1051q23 4 43 6t43 2t45 -2t41 -6q6 -31 12 -81t6 -85q43 70 114 121t181 51q16 0 33.5 -1t30.5 -3q4 -18 6 -39t2 -43q0 -25 -3 -51.5t-7 -51.5q-16 4 -34 4h-28q-55 0 -105 -15t-90 -54t-63.5 -106.5t-23.5 -174.5v-522q-23 -4 -50.5 -6t-50.5 -2t-50.5 2t-51.5 6 v1051zM252 -487l-42.5 -7.5t-41.5 -3.5q-23 0 -45.5 3t-44.5 8l90 354q18 2 38.5 5t43.5 3h41q20 0 38.5 -2t40.5 -6z" />
<glyph unicode="&#x158;" horiz-adv-x="1222" d="M184 1475q45 4 82 8t73 7t75 5t86 2q104 0 206.5 -20.5t182.5 -71.5t130 -138t50 -220q0 -80 -26.5 -145.5t-67.5 -117t-93.5 -89.5t-101.5 -62l-24 -12l428 -621q-55 -6 -125 -6q-55 0 -111 6l-471 682v8l17 4q55 14 116.5 39t113.5 65t87 96t35 136q0 147 -87 219 t-235 72q-35 0 -64.5 -2t-66.5 -6v-1313q-23 -2 -50.5 -4t-51.5 -2q-25 0 -53.5 1t-53.5 5v1475zM222 1817q18 2 40.5 5t43.5 3h45q23 0 50 -3l44 -5l67 -64l66 -63l133 127l47 5q29 3 49 3h47q20 0 42 -3t42 -5l-241 -222q-23 -4 -53.5 -6t-65.5 -2t-64.5 2t-56.5 6z" />
<glyph unicode="&#x159;" horiz-adv-x="761" d="M164 1051q23 4 43 6t43 2t45 -2t41 -6q6 -31 12 -81t6 -85q43 70 114 121t181 51q16 0 33.5 -1t30.5 -3q4 -18 6 -39t2 -43q0 -25 -3 -51.5t-7 -51.5q-16 4 -34 4h-28q-55 0 -105 -15t-90 -54t-63.5 -106.5t-23.5 -174.5v-522q-23 -4 -50.5 -6t-50.5 -2t-50.5 2t-51.5 6 v1051zM111 1475q20 4 42.5 7t51.5 3q25 0 57.5 -3t57.5 -7l133 -164l133 164q23 4 53.5 7t57.5 3q51 0 98 -10l-223 -261q-27 -4 -60.5 -5t-62.5 -1q-23 0 -55.5 2t-61.5 7z" />
<glyph unicode="&#x15a;" horiz-adv-x="1116" d="M143 223q68 -25 141.5 -43t180.5 -18q168 0 251 68.5t83 185.5q0 57 -17.5 98t-52.5 70.5t-87 54.5t-122 53l-117 47q-59 25 -108 54.5t-85 72.5t-56.5 99.5t-20.5 134.5q0 186 127 291.5t356 105.5q98 0 186.5 -16.5t155.5 -40.5q-10 -86 -45 -170q-55 20 -127.5 36.5 t-164.5 16.5q-129 0 -199 -52t-70 -157q0 -43 17.5 -76.5t46 -59.5t67.5 -46.5t82 -36.5l115 -45q82 -33 145.5 -69t108.5 -84t68.5 -113.5t23.5 -153.5q0 -211 -145.5 -333t-407.5 -122q-63 0 -114.5 4.5t-95.5 12.5t-85 20.5l-84 26.5q4 45 18.5 92t30.5 92zM649 1595 q-27 -4 -55.5 -6t-56.5 -2q-29 0 -53.5 2t-53.5 6l217 222q33 4 70 7t74 3q39 0 73.5 -3t63.5 -7z" />
<glyph unicode="&#x15b;" horiz-adv-x="931" d="M145 190q55 -23 122 -36t132 -13q47 0 90 10.5t75 31t51.5 50t19.5 66.5q0 41 -15.5 67.5t-41 45t-59.5 32t-73 25.5l-71 27q-131 49 -190.5 110.5t-59.5 165.5q0 139 99.5 221t291.5 82q80 0 157 -15.5t134 -35.5q-4 -41 -15.5 -82t-27.5 -76q-45 16 -107.5 31.5 t-134.5 15.5q-76 0 -134 -26.5t-58 -93.5q0 -35 14 -59.5t39 -42t56.5 -30t68.5 -24.5l90 -31q49 -16 93 -38.5t76 -56.5t51.5 -82t19.5 -116q0 -76 -31 -138t-87 -106t-136 -69t-176 -25q-98 0 -172 13.5t-138 36.5q4 41 17.5 82.5t29.5 82.5zM520 1217q-23 -4 -49.5 -6.5 t-59.5 -2.5q-23 0 -46 2t-48 7l236 260q31 4 63.5 6t67.5 2q37 0 67.5 -2t59.5 -6z" />
<glyph unicode="&#x15c;" horiz-adv-x="1116" d="M143 223q68 -25 141.5 -43t180.5 -18q168 0 251 68.5t83 185.5q0 57 -17.5 98t-52.5 70.5t-87 54.5t-122 53l-117 47q-59 25 -108 54.5t-85 72.5t-56.5 99.5t-20.5 134.5q0 186 127 291.5t356 105.5q98 0 186.5 -16.5t155.5 -40.5q-10 -86 -45 -170q-55 20 -127.5 36.5 t-164.5 16.5q-129 0 -199 -52t-70 -157q0 -43 17.5 -76.5t46 -59.5t67.5 -46.5t82 -36.5l115 -45q82 -33 145.5 -69t108.5 -84t68.5 -113.5t23.5 -153.5q0 -211 -145.5 -333t-407.5 -122q-63 0 -114.5 4.5t-95.5 12.5t-85 20.5l-84 26.5q4 45 18.5 92t30.5 92zM938 1595 q-18 -4 -40.5 -6t-43.5 -2h-45q-23 0 -50.5 2t-43.5 6l-133 125l-133 -125q-18 -4 -47 -6t-49 -2h-48q-20 0 -41.5 2t-41.5 6l241 222q23 4 53.5 6t65.5 2t64.5 -2t56.5 -6z" />
<glyph unicode="&#x15d;" horiz-adv-x="931" d="M145 190q55 -23 122 -36t132 -13q47 0 90 10.5t75 31t51.5 50t19.5 66.5q0 41 -15.5 67.5t-41 45t-59.5 32t-73 25.5l-71 27q-131 49 -190.5 110.5t-59.5 165.5q0 139 99.5 221t291.5 82q80 0 157 -15.5t134 -35.5q-4 -41 -15.5 -82t-27.5 -76q-45 16 -107.5 31.5 t-134.5 15.5q-76 0 -134 -26.5t-58 -93.5q0 -35 14 -59.5t39 -42t56.5 -30t68.5 -24.5l90 -31q49 -16 93 -38.5t76 -56.5t51.5 -82t19.5 -116q0 -76 -31 -138t-87 -106t-136 -69t-176 -25q-98 0 -172 13.5t-138 36.5q4 41 17.5 82.5t29.5 82.5zM834 1217q-18 -4 -42 -6.5 t-50 -2.5q-27 0 -58.5 2t-58.5 7l-133 163l-133 -163q-23 -4 -52.5 -6.5t-56.5 -2.5q-59 0 -100 9l223 260q27 4 60.5 6t64.5 2q23 0 54.5 -2t60.5 -8z" />
<glyph unicode="&#x15e;" horiz-adv-x="1116" d="M143 223q68 -25 141.5 -43t180.5 -18q168 0 251 68.5t83 185.5q0 57 -17.5 96t-51.5 69.5t-87 55.5t-123 53l-98 39q-63 25 -116.5 55.5t-91.5 73.5t-59.5 102.5t-21.5 139.5q0 186 127 291.5t356 105.5q98 0 186.5 -16.5t155.5 -40.5q-10 -86 -45 -170 q-55 20 -127.5 36.5t-164.5 16.5q-129 0 -199 -52t-70 -157q0 -45 22.5 -83t59.5 -68.5t86 -53t103 -37.5l79 -34q72 -31 131.5 -66t102.5 -81t66.5 -108.5t23.5 -152.5q0 -182 -108.5 -299t-307.5 -145l-39 -97q10 2 20 2h19q113 0 165 -52t52 -128q0 -100 -79.5 -152.5 t-219.5 -52.5q-31 0 -75.5 4.5t-87.5 20.5q0 31 6 62.5t24 60.5q68 -25 129 -25q74 0 109 23.5t35 58.5q0 39 -35 54.5t-96 15.5q-29 0 -57.5 -3t-59.5 -14l-17 19l72 192q-127 0 -213 17.5t-168 46.5q4 45 18.5 92t30.5 92z" />
<glyph unicode="&#x15f;" horiz-adv-x="933" d="M145 190q55 -23 122 -36t132 -13q47 0 90 10.5t75 31t51.5 50t19.5 66.5q0 41 -15.5 67.5t-41 45t-59.5 32t-73 25.5l-71 27q-131 49 -190.5 110.5t-59.5 165.5q0 139 99.5 221t291.5 82q80 0 157 -15.5t134 -35.5q-4 -41 -15.5 -82t-27.5 -76q-45 16 -107.5 31.5 t-134.5 15.5q-76 0 -134 -26.5t-58 -93.5q0 -35 14 -59.5t39 -42t56.5 -30t68.5 -24.5l90 -31q49 -16 93 -38.5t76 -56.5t51.5 -82t19.5 -116q0 -131 -89.5 -219t-240.5 -110l-37 -101q8 2 16 2h19q106 0 161.5 -49t55.5 -125q0 -102 -81 -153.5t-216 -51.5q-29 0 -72 4.5 t-84 20.5q2 29 7.5 60.5t21.5 58.5q68 -23 127 -23t100 20.5t41 61.5t-36.5 57.5t-98.5 16.5q-29 0 -57.5 -4t-57.5 -10q-4 2 -12 10l74 196q-88 2 -154.5 14.5t-126.5 35.5q4 41 17.5 82.5t29.5 82.5z" />
<glyph unicode="&#x160;" horiz-adv-x="1116" d="M143 223q68 -25 141.5 -43t180.5 -18q168 0 251 68.5t83 185.5q0 57 -17.5 98t-52.5 70.5t-87 54.5t-122 53l-117 47q-59 25 -108 54.5t-85 72.5t-56.5 99.5t-20.5 134.5q0 186 127 291.5t356 105.5q98 0 186.5 -16.5t155.5 -40.5q-10 -86 -45 -170q-55 20 -127.5 36.5 t-164.5 16.5q-129 0 -199 -52t-70 -157q0 -43 17.5 -76.5t46 -59.5t67.5 -46.5t82 -36.5l115 -45q82 -33 145.5 -69t108.5 -84t68.5 -113.5t23.5 -153.5q0 -211 -145.5 -333t-407.5 -122q-63 0 -114.5 4.5t-95.5 12.5t-85 20.5l-84 26.5q4 45 18.5 92t30.5 92zM232 1817 q18 2 40.5 5t43.5 3h45q23 0 50 -3l44 -5l67 -64l66 -63l133 127l47 5q29 3 49 3h47q20 0 42 -3t42 -5l-241 -222q-23 -4 -53.5 -6t-65.5 -2t-64.5 2t-56.5 6z" />
<glyph unicode="&#x161;" horiz-adv-x="931" d="M145 190q55 -23 122 -36t132 -13q47 0 90 10.5t75 31t51.5 50t19.5 66.5q0 41 -15.5 67.5t-41 45t-59.5 32t-73 25.5l-71 27q-131 49 -190.5 110.5t-59.5 165.5q0 139 99.5 221t291.5 82q80 0 157 -15.5t134 -35.5q-4 -41 -15.5 -82t-27.5 -76q-45 16 -107.5 31.5 t-134.5 15.5q-76 0 -134 -26.5t-58 -93.5q0 -35 14 -59.5t39 -42t56.5 -30t68.5 -24.5l90 -31q49 -16 93 -38.5t76 -56.5t51.5 -82t19.5 -116q0 -76 -31 -138t-87 -106t-136 -69t-176 -25q-98 0 -172 13.5t-138 36.5q4 41 17.5 82.5t29.5 82.5zM152 1475q20 4 42.5 7t51.5 3 q25 0 57.5 -3t57.5 -7l133 -164l133 164q23 4 53.5 7t57.5 3q51 0 98 -10l-223 -261q-27 -4 -60.5 -5t-62.5 -1q-23 0 -55.5 2t-61.5 7z" />
<glyph unicode="&#x162;" horiz-adv-x="1077" d="M434 1290h-383q-4 20 -6 45t-2 47q0 23 2 46.5t6 44.5h975q4 -20 6 -43t2 -46t-2 -48t-6 -46h-383v-1290q-47 -6 -102 -6q-57 0 -107 6v1290zM529 -487q-47 -10 -88 -11q-23 0 -44.5 3t-46.5 8l93 354q23 4 49 6t51 2h20q23 0 44.5 -2t44.5 -6z" />
<glyph unicode="&#x163;" horiz-adv-x="733" d="M203 889h-160l-8 29l352 393h16v-260h267q8 -35 8 -78q0 -23 -2 -43.5t-6 -40.5h-267v-479q0 -86 7.5 -137.5t25 -79t47 -37t74.5 -9.5q35 0 65.5 5.5t55.5 11.5q14 -41 17 -84t3 -76q-41 -10 -86 -15t-96 -5q-147 0 -230 71.5t-83 237.5v596zM465 -487l-42.5 -7.5 t-41.5 -3.5q-23 0 -45.5 3t-44.5 8l90 354q18 2 38.5 5t43.5 3h41q20 0 38.5 -2t40.5 -6z" />
<glyph unicode="&#x164;" horiz-adv-x="1077" d="M434 1290h-383q-4 20 -6 45t-2 47q0 23 2 46.5t6 44.5h975q4 -20 6 -43t2 -46t-2 -48t-6 -46h-383v-1290q-47 -6 -102 -6q-57 0 -107 6v1290zM185 1817q18 2 40.5 5t43.5 3h45q23 0 50 -3l44 -5l67 -64l66 -63l133 127l47 5q29 3 49 3h47q20 0 42 -3t42 -5l-241 -222 q-23 -4 -53.5 -6t-65.5 -2t-64.5 2t-56.5 6z" />
<glyph unicode="&#x165;" horiz-adv-x="731" d="M582 1501q23 4 45 6t53 2q25 0 49.5 -2t48.5 -6l-30 -330q-25 -4 -43.5 -6t-36.5 -2q-20 0 -41 2t-45 6v330zM203 889h-160l-8 29l352 393h16v-260h267q8 -35 8 -78q0 -23 -2 -43.5t-6 -40.5h-267v-479q0 -86 7.5 -137.5t25 -79t47 -37t74.5 -9.5q35 0 65.5 5.5 t55.5 11.5q14 -41 17 -84t3 -76q-41 -10 -86 -15t-96 -5q-147 0 -230 71.5t-83 237.5v596z" />
<glyph unicode="&#x166;" horiz-adv-x="1077" d="M434 655h-284q-4 16 -6.5 37t-2.5 39t2 40t7 38h284v481h-383q-4 20 -6 45t-2 47q0 23 2 46.5t6 44.5h975q4 -20 6 -43t2 -46t-2 -48t-6 -46h-383v-481h283q4 -16 6 -37.5t2 -40.5q0 -18 -2 -38.5t-6 -37.5h-283v-655q-47 -6 -102 -6q-57 0 -107 6v655z" />
<glyph unicode="&#x167;" horiz-adv-x="733" d="M203 485h-162q-6 37 -6 80q0 41 6 78h162v246h-160l-8 29l352 393h16v-260h267q8 -35 8 -78q0 -23 -2 -43.5t-6 -40.5h-267v-246h267q4 -18 6 -37.5t2 -38.5q0 -47 -8 -82h-267v-75q0 -86 7.5 -137.5t25 -79t47 -37t74.5 -9.5q35 0 65.5 5.5t55.5 11.5q14 -41 17 -84 t3 -76q-41 -10 -86 -15t-96 -5q-147 0 -230 71.5t-83 237.5v192z" />
<glyph unicode="&#x168;" horiz-adv-x="1380" d="M166 1473q49 6 106 6q55 0 103 -6v-836q0 -127 16.5 -217t53 -146.5t97 -83t148.5 -26.5t147.5 26.5t96.5 83t53.5 146.5t16.5 217v836q51 6 104 6q57 0 106 -6v-873q0 -147 -27.5 -264t-90 -197t-162.5 -122t-244 -42q-143 0 -243.5 42t-163 122t-90 197t-27.5 264v873z M325 1759q33 37 86.5 71t120.5 34q43 0 86 -16.5t84 -35.5l81 -34q40 -16 81 -17q39 0 68.5 15.5t70.5 54.5q47 -57 68 -121q-35 -35 -87.5 -66.5t-117.5 -31.5q-45 0 -88 15t-84 34.5t-81 35t-79 15.5q-43 0 -72.5 -17.5t-68.5 -52.5q-23 29 -41.5 56.5t-26.5 60.5z" />
<glyph unicode="&#x169;" horiz-adv-x="1175" d="M152 1051q23 4 51 6t49 2q23 0 51.5 -2t50.5 -6v-576q0 -98 18.5 -162.5t55.5 -101.5t90 -51.5t123 -14.5q104 0 178 23v883q23 4 50.5 6t50.5 2t50 -2t50 -6v-1018q-72 -20 -171 -39t-206 -19q-100 0 -189 17.5t-157 71t-106.5 149.5t-38.5 254v584zM242 1368 q31 41 80 70.5t116 29.5q43 0 82 -14t75 -30.5t73 -31t78 -14.5q35 0 64.5 12.5t72.5 51.5q45 -55 65 -125q-33 -39 -83 -67.5t-115 -28.5q-43 0 -82 14t-76 30.5t-73 31t-75 14.5q-41 0 -69.5 -14.5t-69.5 -49.5q-23 29 -39 58.5t-24 62.5z" />
<glyph unicode="&#x16a;" horiz-adv-x="1380" d="M166 1473q49 6 106 6q55 0 103 -6v-836q0 -127 16.5 -217t53 -146.5t97 -83t148.5 -26.5t147.5 26.5t96.5 83t53.5 146.5t16.5 217v836q51 6 104 6q57 0 106 -6v-873q0 -147 -27.5 -264t-90 -197t-162.5 -122t-244 -42q-143 0 -243.5 42t-163 122t-90 197t-27.5 264v873z M1018 1780q4 -16 5 -38t1 -40t-1 -39t-5 -37h-654q-4 16 -6 36.5t-2 39.5q0 18 2 39.5t6 38.5h654z" />
<glyph unicode="&#x16b;" horiz-adv-x="1175" d="M152 1051q23 4 51 6t49 2q23 0 51.5 -2t50.5 -6v-576q0 -98 18.5 -162.5t55.5 -101.5t90 -51.5t123 -14.5q104 0 178 23v883q23 4 50.5 6t50.5 2t50 -2t50 -6v-1018q-72 -20 -171 -39t-206 -19q-100 0 -189 17.5t-157 71t-106.5 149.5t-38.5 254v584zM862 1421 q4 -16 6.5 -36.5t2.5 -38.5t-2 -39t-7 -37h-552q-4 16 -6.5 36.5t-2.5 39.5q0 16 2 37.5t7 37.5h552z" />
<glyph unicode="&#x16c;" horiz-adv-x="1380" d="M166 1473q49 6 106 6q55 0 103 -6v-836q0 -127 16.5 -217t53 -146.5t97 -83t148.5 -26.5t147.5 26.5t96.5 83t53.5 146.5t16.5 217v836q51 6 104 6q57 0 106 -6v-873q0 -147 -27.5 -264t-90 -197t-162.5 -122t-244 -42q-143 0 -243.5 42t-163 122t-90 197t-27.5 264v873z M696 1583q-47 0 -103.5 8t-106.5 35t-87 74t-45 125q23 4 44 7t44 3q25 0 47.5 -3t44.5 -7q6 -45 41 -78t121 -33t121 33t41 78q51 10 94 10q23 0 43 -3l45 -7q-8 -78 -46 -125t-88 -74t-106.5 -35t-103.5 -8z" />
<glyph unicode="&#x16d;" horiz-adv-x="1175" d="M152 1051q23 4 51 6t49 2q23 0 51.5 -2t50.5 -6v-576q0 -98 18.5 -162.5t55.5 -101.5t90 -51.5t123 -14.5q104 0 178 23v883q23 4 50.5 6t50.5 2t50 -2t50 -6v-1018q-72 -20 -171 -39t-206 -19q-100 0 -189 17.5t-157 71t-106.5 149.5t-38.5 254v584zM588 1200 q-47 0 -101.5 11.5t-103.5 42t-86 84t-47 137.5q23 6 47.5 8t46.5 2q23 0 44.5 -3t43.5 -7q2 -25 11.5 -48.5t28 -43t46 -32t70.5 -12.5t70.5 12.5t46 32t27 43t12.5 48.5q25 4 47 7t45 3t46 -2t44 -8q-10 -84 -47 -137.5t-86 -84t-103.5 -42t-101.5 -11.5z" />
<glyph unicode="&#x16e;" horiz-adv-x="1380" d="M166 1473q49 6 106 6q55 0 103 -6v-836q0 -127 16.5 -217t53 -146.5t97 -83t148.5 -26.5t147.5 26.5t96.5 83t53.5 146.5t16.5 217v836q51 6 104 6q57 0 106 -6v-873q0 -147 -27.5 -264t-90 -197t-162.5 -122t-244 -42q-143 0 -243.5 42t-163 122t-90 197t-27.5 264v873z M452 1739q0 51 17.5 94t50.5 73.5t76 48t96 17.5q51 0 95 -17.5t77 -48t50.5 -73.5t17.5 -94t-17.5 -94t-50.5 -75t-77 -49.5t-95 -17.5q-53 0 -96 17.5t-76 49.5t-50.5 75t-17.5 94zM692 1610q53 0 82 34.5t29 94.5q0 57 -29 92t-82 35t-81.5 -35t-28.5 -92q0 -59 28.5 -94 t81.5 -35z" />
<glyph unicode="&#x16f;" horiz-adv-x="1175" d="M152 1051q23 4 51 6t49 2q23 0 51.5 -2t50.5 -6v-576q0 -98 18.5 -162.5t55.5 -101.5t90 -51.5t123 -14.5q104 0 178 23v883q23 4 50.5 6t50.5 2t50 -2t50 -6v-1018q-72 -20 -171 -39t-206 -19q-100 0 -189 17.5t-157 71t-106.5 149.5t-38.5 254v584zM375 1419 q0 98 61.5 158.5t159.5 60.5t159.5 -60t61.5 -159q0 -98 -61.5 -158.5t-159.5 -60.5t-159.5 60.5t-61.5 158.5zM596 1305q49 0 75.5 30.5t26.5 83.5t-26.5 84t-75.5 31t-74.5 -30.5t-25.5 -84.5q0 -53 25.5 -83.5t74.5 -30.5z" />
<glyph unicode="&#x170;" horiz-adv-x="1380" d="M166 1473q49 6 106 6q55 0 103 -6v-836q0 -127 16.5 -217t53 -146.5t97 -83t148.5 -26.5t147.5 26.5t96.5 83t53.5 146.5t16.5 217v836q51 6 104 6q57 0 106 -6v-873q0 -147 -27.5 -264t-90 -197t-162.5 -122t-244 -42q-143 0 -243.5 42t-163 122t-90 197t-27.5 264v873z M559 1593q-25 -4 -53.5 -6t-58.5 -2q-23 0 -47.5 2t-53.5 6l205 226q33 6 66 7t61 1q29 0 59.5 -2t63.5 -6zM979 1593q-23 -4 -52.5 -6t-57.5 -2q-23 0 -47.5 2t-53.5 6l203 226q35 6 66.5 7t60.5 1t60.5 -2t64.5 -6z" />
<glyph unicode="&#x171;" horiz-adv-x="1175" d="M152 1051q23 4 51 6t49 2q23 0 51.5 -2t50.5 -6v-576q0 -98 18.5 -162.5t55.5 -101.5t90 -51.5t123 -14.5q104 0 178 23v883q23 4 50.5 6t50.5 2t50 -2t50 -6v-1018q-72 -20 -171 -39t-206 -19q-100 0 -189 17.5t-157 71t-106.5 149.5t-38.5 254v584zM478 1217 q-23 -4 -50.5 -6.5t-58.5 -2.5q-23 0 -46.5 2t-47.5 7l231 260q31 4 62.5 6t60.5 2t59.5 -2t61.5 -6zM871 1217q-23 -4 -50.5 -6.5t-58.5 -2.5q-23 0 -46 2t-48 7l234 260q29 4 60.5 6t59.5 2q31 0 60.5 -2t60.5 -6z" />
<glyph unicode="&#x172;" horiz-adv-x="1378" d="M166 1473q49 6 106 6q53 0 103 -6v-836q0 -127 16.5 -217t53 -146.5t97 -83t148.5 -26.5t147.5 26.5t96.5 83t53.5 146.5t16.5 217v836q49 6 104 6q25 0 53.5 -1t50.5 -5v-873q0 -252 -82.5 -407.5t-279.5 -198.5q-68 -53 -115 -116.5t-47 -131.5q0 -47 28.5 -74.5 t86.5 -27.5q16 0 43.5 4t62.5 14q16 -27 23.5 -64.5t7.5 -68.5q-31 -10 -74 -17.5t-102 -7.5q-49 0 -96 11.5t-85 36t-61.5 63.5t-23.5 96q0 70 40 138.5t107 125.5q-131 6 -222 51.5t-148.5 125t-83 192.5t-25.5 256v873z" />
<glyph unicode="&#x173;" horiz-adv-x="1175" d="M152 1051q23 4 50 5t50 1t50.5 -1t49.5 -5v-578q0 -98 19.5 -161.5t56.5 -100.5t90 -51.5t123 -14.5q53 0 97 5.5t79 15.5v885q23 4 50.5 5t50.5 1t51 -1t51 -5v-1018l-34 -19l-32 -16q-45 -20 -78.5 -51t-56 -65t-34 -67.5t-11.5 -62.5q0 -51 28.5 -80.5t86.5 -29.5 q16 0 41.5 3t58.5 13q14 -27 21.5 -63.5t7.5 -65.5q-29 -10 -74 -17.5t-96 -7.5q-49 0 -95 11.5t-83 36t-59.5 64.5t-22.5 95q0 66 41 138.5t110 132.5q-47 -6 -96 -7q-100 0 -189 17.5t-157 70t-106.5 148.5t-38.5 254v586z" />
<glyph unicode="&#x174;" horiz-adv-x="1886" d="M55 1473q23 4 56.5 6t62.5 2t58.5 -2t54.5 -6l252 -1227l303 1227q25 4 54.5 6t55.5 2q25 0 55.5 -2t53.5 -6l305 -1240l256 1240q23 4 48.5 6t49.5 2q29 0 58.5 -2t52.5 -6l-354 -1473q-25 -4 -58 -6t-59 -2q-29 0 -63.5 2t-63.5 6l-291 1153l-295 -1153 q-29 -4 -62.5 -6t-62.5 -2q-25 0 -56.5 2t-55.5 6zM1298 1595q-18 -4 -40.5 -6t-43.5 -2h-45q-23 0 -50.5 2t-43.5 6l-133 125l-133 -125q-18 -4 -47 -6t-49 -2h-48q-20 0 -41.5 2t-41.5 6l241 222q23 4 53.5 6t65.5 2t64.5 -2t56.5 -6z" />
<glyph unicode="&#x175;" horiz-adv-x="1587" d="M45 1051q29 4 57.5 6t51.5 2q29 0 58.5 -2t51.5 -6l205 -858l231 858q23 4 49.5 6t55.5 2q33 -2 56.5 -3t45.5 -5l230 -844l204 844q23 4 45.5 6t49.5 2q23 0 50 -2t56 -6l-313 -1051q-27 -4 -54.5 -6t-50.5 -2t-49 2t-53 6l-225 795l-236 -795q-29 -4 -56.5 -6t-49.5 -2 q-23 0 -50.5 2t-50.5 6zM1135 1217q-18 -4 -42 -6.5t-50 -2.5q-27 0 -58.5 2t-58.5 7l-133 163l-133 -163q-23 -4 -52.5 -6.5t-56.5 -2.5q-59 0 -100 9l223 260q27 4 60.5 6t64.5 2q23 0 54.5 -2t60.5 -8z" />
<glyph unicode="&#x176;" horiz-adv-x="1212" d="M504 539l-467 934q27 4 57.5 6t61.5 2q27 0 58.5 -2t55.5 -6l344 -732l340 732q27 4 53.5 6t55.5 2t57.5 -2t55.5 -6l-461 -934v-539q-27 -4 -53.5 -6t-53.5 -2t-54.5 2t-49.5 6v539zM968 1595q-18 -4 -40.5 -6t-43.5 -2h-45q-23 0 -50.5 2t-43.5 6l-133 125l-133 -125 q-18 -4 -47 -6t-49 -2h-48q-20 0 -41.5 2t-41.5 6l241 222q23 4 53.5 6t65.5 2t64.5 -2t56.5 -6z" />
<glyph unicode="&#x177;" horiz-adv-x="1079" d="M522 -2q-16 0 -33.5 -1t-33.5 -1q-20 0 -43 1t-37 3l-348 1051q27 4 55.5 5t52.5 1q27 0 59.5 -1t55.5 -5l291 -977l301 977q43 6 100 6q23 0 51.5 -1t57.5 -5l-408 -1264q-29 -84 -59.5 -141.5t-69.5 -92t-87 -49t-112 -14.5q-47 0 -93 7t-81 18q0 47 8.5 83.5 t24.5 73.5q18 -6 50 -13t69 -7q27 0 50.5 5t44 20.5t37.5 44t34 77.5zM881 1217q-18 -4 -42 -6.5t-50 -2.5q-27 0 -58.5 2t-58.5 7l-133 163l-133 -163q-23 -4 -52.5 -6.5t-56.5 -2.5q-59 0 -100 9l223 260q27 4 60.5 6t64.5 2q23 0 54.5 -2t60.5 -8z" />
<glyph unicode="&#x178;" horiz-adv-x="1212" d="M504 539l-467 934q27 4 57.5 6t61.5 2q27 0 58.5 -2t55.5 -6l344 -732l340 732q27 4 53.5 6t55.5 2t57.5 -2t55.5 -6l-461 -934v-539q-27 -4 -53.5 -6t-53.5 -2t-54.5 2t-49.5 6v539zM280 1616q-6 51 -6 102t6 105q29 4 55.5 6t51.5 2q27 0 55.5 -2t52.5 -6q8 -47 9 -103 q0 -57 -9 -104q-25 -4 -52.5 -6t-53.5 -2q-25 0 -52.5 2t-56.5 6zM721 1616l-7.5 51.5t-3.5 50.5q0 47 11 105q25 4 52.5 6t53.5 2q25 0 52.5 -2t56.5 -6q6 -53 6 -103q0 -53 -6 -104q-29 -4 -55.5 -6t-53.5 -2q-25 0 -53 2t-53 6z" />
<glyph unicode="&#x179;" horiz-adv-x="1167" d="M55 18l742 1272h-650q-4 18 -6 43t-2 47q0 23 2 47.5t6 45.5h957l14 -19l-743 -1272h690q4 -18 6 -43.5t2 -48.5t-2 -47.5t-6 -42.5h-998zM696 1595q-27 -4 -55.5 -6t-56.5 -2q-29 0 -53.5 2t-53.5 6l217 222q33 4 70 7t74 3q39 0 73.5 -3t63.5 -7z" />
<glyph unicode="&#x17a;" horiz-adv-x="976" d="M59 29l553 860h-487q-6 37 -6 82q0 43 6 80h788l11 -27l-557 -862h522q6 -41 6 -84q0 -41 -6 -78h-819zM555 1217q-23 -4 -49.5 -6.5t-59.5 -2.5q-23 0 -46 2t-48 7l236 260q31 4 63.5 6t67.5 2q37 0 67.5 -2t59.5 -6z" />
<glyph unicode="&#x17b;" horiz-adv-x="1167" d="M55 18l742 1272h-650q-4 18 -6 43t-2 47q0 23 2 47.5t6 45.5h957l14 -19l-743 -1272h690q4 -18 6 -43.5t2 -48.5t-2 -47.5t-6 -42.5h-998zM514 1614q-8 47 -8 104q0 27 2 53.5t6 53.5q29 6 56.5 8t53.5 2q27 0 55.5 -2t57.5 -8q8 -47 8 -105q0 -27 -2 -53.5t-6 -52.5 q-29 -6 -56.5 -8t-54.5 -2t-55 2t-57 8z" />
<glyph unicode="&#x17c;" horiz-adv-x="976" d="M59 29l553 860h-487q-6 37 -6 82q0 43 6 80h788l11 -27l-557 -862h522q6 -41 6 -84q0 -41 -6 -78h-819zM416 1243q-4 29 -6.5 56.5t-2.5 56.5q0 27 2.5 55.5t6.5 56.5q29 4 58.5 7.5t57.5 3.5q29 0 59.5 -3t59.5 -8q4 -29 6 -56.5t2 -55.5q0 -27 -2 -55.5t-6 -57.5 q-29 -4 -58.5 -6t-58.5 -2t-59 2t-59 6z" />
<glyph unicode="&#x17d;" horiz-adv-x="1167" d="M55 18l742 1272h-650q-4 18 -6 43t-2 47q0 23 2 47.5t6 45.5h957l14 -19l-743 -1272h690q4 -18 6 -43.5t2 -48.5t-2 -47.5t-6 -42.5h-998zM287 1817q18 2 40.5 5t43.5 3h45q23 0 50 -3l44 -5l67 -64l66 -63l133 127l47 5q29 3 49 3h47q20 0 42 -3t42 -5l-241 -222 q-23 -4 -53.5 -6t-65.5 -2t-64.5 2t-56.5 6z" />
<glyph unicode="&#x17e;" horiz-adv-x="976" d="M59 29l553 860h-487q-6 37 -6 82q0 43 6 80h788l11 -27l-557 -862h522q6 -41 6 -84q0 -41 -6 -78h-819zM193 1475q20 4 42.5 7t51.5 3q25 0 57.5 -3t57.5 -7l133 -164l133 164q23 4 53.5 7t57.5 3q51 0 98 -10l-223 -261q-27 -4 -60.5 -5t-62.5 -1q-23 0 -55.5 2t-61.5 7 z" />
<glyph unicode="&#x17f;" horiz-adv-x="700" d="M406 0q-23 -4 -50.5 -6t-50.5 -2t-50.5 2t-49.5 6v1124q0 195 97 296.5t284 101.5q51 0 89 -5.5t73 -15.5q-4 -51 -10.5 -88t-20.5 -76l-48 10q-28 5 -65 5q-45 0 -82 -9.5t-62.5 -35t-39.5 -71.5t-14 -118v-1118z" />
<glyph unicode="&#x192;" d="M522 950l27 164q29 174 115 266.5t260 92.5q47 0 88 -5.5t75 -15.5q-4 -51 -11 -89t-21 -77l-48 9q-28 5 -65 5q-47 0 -80 -9t-55.5 -35.5t-37.5 -71.5t-26 -115l-18 -119h244q6 -41 6 -84q0 -39 -6 -75h-264l-91 -631q-16 -104 -41.5 -186.5t-70.5 -138.5t-111.5 -86 t-163.5 -30h-30q-39 0 -72 8l-62 13q4 51 11.5 88t19.5 76l48 -9q28 -5 67 -6q45 0 77.5 9.5t55.5 36t38 70.5t26 116l96 670h-178q-6 37 -7 79q0 39 7 80h198z" />
<glyph unicode="&#x218;" horiz-adv-x="1116" d="M143 223q68 -25 141.5 -43t180.5 -18q168 0 251 68.5t83 185.5q0 57 -17.5 98t-52.5 70.5t-87 54.5t-122 53l-117 47q-59 25 -108 54.5t-85 72.5t-56.5 99.5t-20.5 134.5q0 186 127 291.5t356 105.5q98 0 186.5 -16.5t155.5 -40.5q-10 -86 -45 -170q-55 20 -127.5 36.5 t-164.5 16.5q-129 0 -199 -52t-70 -157q0 -43 17.5 -76.5t46 -59.5t67.5 -46.5t82 -36.5l115 -45q82 -33 145.5 -69t108.5 -84t68.5 -113.5t23.5 -153.5q0 -211 -145.5 -333t-407.5 -122q-63 0 -114.5 4.5t-95.5 12.5t-85 20.5l-84 26.5q4 45 18.5 92t30.5 92zM564 -487 l-42.5 -7.5t-41.5 -3.5q-23 0 -45.5 3t-44.5 8l90 354q18 2 38.5 5t43.5 3h41q20 0 38.5 -2t40.5 -6z" />
<glyph unicode="&#x219;" horiz-adv-x="931" d="M145 190q55 -23 122 -36t132 -13q47 0 90 10.5t75 31t51.5 50t19.5 66.5q0 41 -15.5 67.5t-41 45t-59.5 32t-73 25.5l-71 27q-131 49 -190.5 110.5t-59.5 165.5q0 139 99.5 221t291.5 82q80 0 157 -15.5t134 -35.5q-4 -41 -15.5 -82t-27.5 -76q-45 16 -107.5 31.5 t-134.5 15.5q-76 0 -134 -26.5t-58 -93.5q0 -35 14 -59.5t39 -42t56.5 -30t68.5 -24.5l90 -31q49 -16 93 -38.5t76 -56.5t51.5 -82t19.5 -116q0 -76 -31 -138t-87 -106t-136 -69t-176 -25q-98 0 -172 13.5t-138 36.5q4 41 17.5 82.5t29.5 82.5zM482 -487l-42.5 -7.5 t-41.5 -3.5q-23 0 -45.5 3t-44.5 8l90 354q18 2 38.5 5t43.5 3h41q20 0 38.5 -2t40.5 -6z" />
<glyph unicode="&#x21a;" horiz-adv-x="1077" d="M434 1290h-383q-4 20 -6 45t-2 47q0 23 2 46.5t6 44.5h975q4 -20 6 -43t2 -46t-2 -48t-6 -46h-383v-1290q-47 -6 -102 -6q-57 0 -107 6v1290zM525 -487q-47 -10 -88 -11q-23 0 -44.5 3t-46.5 8l93 354q23 4 49 6t51 2h20q23 0 44.5 -2t44.5 -6z" />
<glyph unicode="&#x21b;" horiz-adv-x="733" d="M203 889h-160l-8 29l352 393h16v-260h267q8 -35 8 -78q0 -23 -2 -43.5t-6 -40.5h-267v-479q0 -86 7.5 -137.5t25 -79t47 -37t74.5 -9.5q35 0 65.5 5.5t55.5 11.5q14 -41 17 -84t3 -76q-41 -10 -86 -15t-96 -5q-147 0 -230 71.5t-83 237.5v596zM461 -487l-42.5 -7.5 t-41.5 -3.5q-23 0 -45.5 3t-44.5 8l90 354q18 2 38.5 5t43.5 3h41q20 0 38.5 -2t40.5 -6z" />
<glyph unicode="&#x237;" horiz-adv-x="593" d="M231 889h-135q-4 16 -6 37.5t-2 42.5q0 20 2 41.5t6 40.5h334v-1110q0 -90 -24.5 -151.5t-68.5 -99.5t-103.5 -54.5t-129.5 -16.5q-59 0 -104 7t-80 18q0 37 9.5 80t23.5 73q23 -8 49.5 -12t60.5 -4q27 0 57 5t54.5 22.5t40.5 52.5t16 94v934z" />
<glyph unicode="&#x2bc;" horiz-adv-x="595" d="M233 1501q14 4 40 6t55 2t58.5 -2t45.5 -6l-113 -334q-25 -4 -44 -6t-42 -2q-45 0 -83 8z" />
<glyph unicode="&#x2c6;" horiz-adv-x="1019" d="M852 1217q-18 -4 -42 -6.5t-50 -2.5q-27 0 -58.5 2t-58.5 7l-133 163l-133 -163q-23 -4 -52.5 -6.5t-56.5 -2.5q-59 0 -100 9l223 260q27 4 60.5 6t64.5 2q23 0 54.5 -2t60.5 -8z" />
<glyph unicode="&#x2c7;" horiz-adv-x="1019" d="M168 1475q20 4 42.5 7t51.5 3q25 0 57.5 -3t57.5 -7l133 -164l133 164q23 4 53.5 7t57.5 3q51 0 98 -10l-223 -261q-27 -4 -60.5 -5t-62.5 -1q-23 0 -55.5 2t-61.5 7z" />
<glyph unicode="&#x2c9;" horiz-adv-x="1024" d="M788 1421q4 -16 6.5 -36.5t2.5 -38.5t-2 -39t-7 -37h-552q-4 16 -6.5 36.5t-2.5 39.5q0 16 2 37.5t7 37.5h552z" />
<glyph unicode="&#x2d8;" horiz-adv-x="1019" d="M510 1200q-47 0 -101.5 11.5t-103.5 42t-86 84t-47 137.5q23 6 47.5 8t46.5 2q23 0 44.5 -3t43.5 -7q2 -25 11.5 -48.5t28 -43t46 -32t70.5 -12.5t70.5 12.5t46 32t27 43t12.5 48.5q25 4 47 7t45 3t46 -2t44 -8q-10 -84 -47 -137.5t-86 -84t-103.5 -42t-101.5 -11.5z" />
<glyph unicode="&#x2d9;" horiz-adv-x="628" d="M197 1243q-4 29 -6.5 56.5t-2.5 56.5q0 27 2.5 55.5t6.5 56.5q29 4 58.5 7.5t57.5 3.5q29 0 59.5 -3t59.5 -8q4 -29 6 -56.5t2 -55.5q0 -27 -2 -55.5t-6 -57.5q-29 -4 -58.5 -6t-58.5 -2t-59 2t-59 6z" />
<glyph unicode="&#x2da;" horiz-adv-x="1032" d="M295 1419q0 98 61.5 158.5t159.5 60.5t159.5 -60t61.5 -159q0 -98 -61.5 -158.5t-159.5 -60.5t-159.5 60.5t-61.5 158.5zM516 1305q49 0 75.5 30.5t26.5 83.5t-26.5 84t-75.5 31t-74.5 -30.5t-25.5 -84.5q0 -53 25.5 -83.5t74.5 -30.5z" />
<glyph unicode="&#x2db;" horiz-adv-x="1024" d="M651 0q-72 -47 -120 -116.5t-48 -133.5q0 -49 28 -79.5t85 -30.5q18 0 43 3t57 13q14 -25 21.5 -61.5t9.5 -67.5q-29 -10 -75 -16.5t-95 -6.5t-96 11.5t-83 36t-58.5 63.5t-22.5 94q0 72 48 152t126 139h180z" />
<glyph unicode="&#x2dc;" horiz-adv-x="1024" d="M160 1368q31 41 80 70.5t116 29.5q43 0 82 -14t75 -30.5t73 -31t78 -14.5q35 0 64.5 12.5t72.5 51.5q45 -55 65 -125q-33 -39 -83 -67.5t-115 -28.5q-43 0 -82 14t-76 30.5t-73 31t-75 14.5q-41 0 -69.5 -14.5t-69.5 -49.5q-23 29 -39 58.5t-24 62.5z" />
<glyph unicode="&#x2dd;" horiz-adv-x="1024" d="M281 1217q-23 -4 -50.5 -6.5t-58.5 -2.5q-23 0 -46.5 2t-47.5 7l231 260q31 4 62.5 6t60.5 2t59.5 -2t61.5 -6zM674 1217q-23 -4 -50.5 -6.5t-58.5 -2.5q-23 0 -46 2t-48 7l234 260q29 4 60.5 6t59.5 2q31 0 60.5 -2t60.5 -6z" />
<glyph unicode="&#x3a9;" horiz-adv-x="1495" d="M741 1487q152 0 267.5 -50.5t194.5 -142.5t119 -222t40 -290q0 -182 -58.5 -338.5t-144.5 -261.5h238q4 -20 5 -45.5t1 -48.5t-1 -45.5t-5 -42.5h-545l-10 29q43 45 95 119.5t97 172t76 213t31 244.5q0 262 -101.5 393.5t-298.5 131.5t-298 -131.5t-101 -393.5 q0 -133 30.5 -249.5t76 -212t97.5 -169t95 -118.5l-10 -29h-545q-4 20 -5 43t-1 45q0 23 1 48.5t5 45.5h238q-86 104 -144.5 261t-58.5 339q0 160 40 290t118.5 222t194 142.5t267.5 50.5z" />
<glyph unicode="&#x3c0;" horiz-adv-x="1511" d="M389 885h-16q-70 0 -129.5 -23.5t-93.5 -52.5q-23 25 -43.5 64.5t-24.5 72.5q104 104 313 105h1000q6 -41 6 -78q0 -23 -1 -45.5t-5 -42.5h-260v-539q0 -113 33.5 -156t99.5 -43q35 0 65.5 5.5t55.5 11.5q12 -37 16 -77t4 -83q-39 -10 -85 -15t-97 -5q-166 0 -229.5 100 t-63.5 293v508h-346v-885q-23 -4 -50.5 -5t-50.5 -1t-49 1t-49 5v885z" />
<glyph unicode="&#x1e80;" horiz-adv-x="1886" d="M55 1473q23 4 56.5 6t62.5 2t58.5 -2t54.5 -6l252 -1227l303 1227q25 4 54.5 6t55.5 2q25 0 55.5 -2t53.5 -6l305 -1240l256 1240q23 4 48.5 6t49.5 2q29 0 58.5 -2t52.5 -6l-354 -1473q-25 -4 -58 -6t-59 -2q-29 0 -63.5 2t-63.5 6l-291 1153l-295 -1153 q-29 -4 -62.5 -6t-62.5 -2q-25 0 -56.5 2t-55.5 6zM581 1817q29 4 64.5 7t72.5 3t75 -3t71 -7l215 -222q-47 -8 -105 -8q-29 0 -57.5 2t-54.5 6z" />
<glyph unicode="&#x1e81;" horiz-adv-x="1587" d="M45 1051q29 4 57.5 6t51.5 2q29 0 58.5 -2t51.5 -6l205 -858l231 858q23 4 49.5 6t55.5 2q33 -2 56.5 -3t45.5 -5l230 -844l204 844q23 4 45.5 6t49.5 2q23 0 50 -2t56 -6l-313 -1051q-27 -4 -54.5 -6t-50.5 -2t-49 2t-53 6l-225 795l-236 -795q-29 -4 -56.5 -6t-49.5 -2 q-23 0 -50.5 2t-50.5 6zM446 1477q31 4 61.5 6t67.5 2q33 0 67 -2t64 -6l236 -260q-47 -8 -96 -9q-31 0 -58.5 2t-50.5 7z" />
<glyph unicode="&#x1e82;" horiz-adv-x="1886" d="M55 1473q23 4 56.5 6t62.5 2t58.5 -2t54.5 -6l252 -1227l303 1227q25 4 54.5 6t55.5 2q25 0 55.5 -2t53.5 -6l305 -1240l256 1240q23 4 48.5 6t49.5 2q29 0 58.5 -2t52.5 -6l-354 -1473q-25 -4 -58 -6t-59 -2q-29 0 -63.5 2t-63.5 6l-291 1153l-295 -1153 q-29 -4 -62.5 -6t-62.5 -2q-25 0 -56.5 2t-55.5 6zM970 1595q-27 -4 -55.5 -6t-56.5 -2q-29 0 -53.5 2t-53.5 6l217 222q33 4 70 7t74 3q39 0 73.5 -3t63.5 -7z" />
<glyph unicode="&#x1e83;" horiz-adv-x="1587" d="M45 1051q29 4 57.5 6t51.5 2q29 0 58.5 -2t51.5 -6l205 -858l231 858q23 4 49.5 6t55.5 2q33 -2 56.5 -3t45.5 -5l230 -844l204 844q23 4 45.5 6t49.5 2q23 0 50 -2t56 -6l-313 -1051q-27 -4 -54.5 -6t-50.5 -2t-49 2t-53 6l-225 795l-236 -795q-29 -4 -56.5 -6t-49.5 -2 q-23 0 -50.5 2t-50.5 6zM809 1217q-23 -4 -49.5 -6.5t-59.5 -2.5q-23 0 -46 2t-48 7l236 260q31 4 63.5 6t67.5 2q37 0 67.5 -2t59.5 -6z" />
<glyph unicode="&#x1e84;" horiz-adv-x="1886" d="M55 1473q23 4 56.5 6t62.5 2t58.5 -2t54.5 -6l252 -1227l303 1227q25 4 54.5 6t55.5 2q25 0 55.5 -2t53.5 -6l305 -1240l256 1240q23 4 48.5 6t49.5 2q29 0 58.5 -2t52.5 -6l-354 -1473q-25 -4 -58 -6t-59 -2q-29 0 -63.5 2t-63.5 6l-291 1153l-295 -1153 q-29 -4 -62.5 -6t-62.5 -2q-25 0 -56.5 2t-55.5 6zM614 1616q-6 51 -6 102t6 105q29 4 55.5 6t51.5 2q27 0 55.5 -2t52.5 -6q8 -47 9 -103q0 -57 -9 -104q-25 -4 -52.5 -6t-53.5 -2q-25 0 -52.5 2t-56.5 6zM1055 1616l-7.5 51.5t-3.5 50.5q0 47 11 105q25 4 52.5 6t53.5 2 q25 0 52.5 -2t56.5 -6q6 -53 6 -103q0 -53 -6 -104q-29 -4 -55.5 -6t-53.5 -2q-25 0 -53 2t-53 6z" />
<glyph unicode="&#x1e85;" horiz-adv-x="1587" d="M45 1051q29 4 57.5 6t51.5 2q29 0 58.5 -2t51.5 -6l205 -858l231 858q23 4 49.5 6t55.5 2q33 -2 56.5 -3t45.5 -5l230 -844l204 844q23 4 45.5 6t49.5 2q23 0 50 -2t56 -6l-313 -1051q-27 -4 -54.5 -6t-50.5 -2t-49 2t-53 6l-225 795l-236 -795q-29 -4 -56.5 -6t-49.5 -2 q-23 0 -50.5 2t-50.5 6zM480 1237q-4 27 -6.5 51.5t-2.5 50.5q0 25 2.5 50.5t6.5 52.5q25 4 52.5 6t51.5 2q23 0 50.5 -2t54.5 -6q8 -47 8 -103q0 -25 -2 -50t-6 -52q-53 -6 -105 -6q-23 0 -51 1t-53 5zM897 1237q-8 47 -8 102q0 25 2 50.5t6 52.5q25 4 52.5 6t50.5 2 q25 0 52.5 -2t53.5 -6q6 -53 6 -103q0 -51 -6 -102q-53 -6 -104 -6q-23 0 -51.5 1t-53.5 5z" />
<glyph unicode="&#x1ef2;" horiz-adv-x="1212" d="M504 539l-467 934q27 4 57.5 6t61.5 2q27 0 58.5 -2t55.5 -6l344 -732l340 732q27 4 53.5 6t55.5 2t57.5 -2t55.5 -6l-461 -934v-539q-27 -4 -53.5 -6t-53.5 -2t-54.5 2t-49.5 6v539zM291 1817q29 4 64.5 7t72.5 3t75 -3t71 -7l215 -222q-47 -8 -105 -8q-29 0 -57.5 2 t-54.5 6z" />
<glyph unicode="&#x1ef3;" horiz-adv-x="1079" d="M522 -2q-16 0 -33.5 -1t-33.5 -1q-20 0 -43 1t-37 3l-348 1051q27 4 55.5 5t52.5 1q27 0 59.5 -1t55.5 -5l291 -977l301 977q43 6 100 6q23 0 51.5 -1t57.5 -5l-408 -1264q-29 -84 -59.5 -141.5t-69.5 -92t-87 -49t-112 -14.5q-47 0 -93 7t-81 18q0 47 8.5 83.5 t24.5 73.5q18 -6 50 -13t69 -7q27 0 50.5 5t44 20.5t37.5 44t34 77.5zM213 1477q31 4 61.5 6t67.5 2q33 0 67 -2t64 -6l236 -260q-47 -8 -96 -9q-31 0 -58.5 2t-50.5 7z" />
<glyph unicode="&#x2000;" horiz-adv-x="985" />
<glyph unicode="&#x2001;" horiz-adv-x="1972" />
<glyph unicode="&#x2002;" horiz-adv-x="985" />
<glyph unicode="&#x2003;" horiz-adv-x="1972" />
<glyph unicode="&#x2004;" horiz-adv-x="657" />
<glyph unicode="&#x2005;" horiz-adv-x="491" />
<glyph unicode="&#x2006;" horiz-adv-x="327" />
<glyph unicode="&#x2007;" horiz-adv-x="327" />
<glyph unicode="&#x2008;" horiz-adv-x="245" />
<glyph unicode="&#x2009;" horiz-adv-x="393" />
<glyph unicode="&#x200a;" horiz-adv-x="108" />
<glyph unicode="&#x2010;" horiz-adv-x="739" d="M635 668q4 -20 6 -46t2 -49t-2 -48t-6 -44h-531q-4 18 -6 44t-2 48q0 23 2 48.5t6 46.5h531z" />
<glyph unicode="&#x2011;" horiz-adv-x="739" d="M635 668q4 -20 6 -46t2 -49t-2 -48t-6 -44h-531q-4 18 -6 44t-2 48q0 23 2 48.5t6 46.5h531z" />
<glyph unicode="&#x2012;" horiz-adv-x="739" d="M635 668q4 -20 6 -46t2 -49t-2 -48t-6 -44h-531q-4 18 -6 44t-2 48q0 23 2 48.5t6 46.5h531z" />
<glyph unicode="&#x2013;" horiz-adv-x="1024" d="M1024 668q4 -23 6 -45.5t2 -47.5q0 -27 -2 -50t-6 -44h-1024q-4 23 -6 46.5t-2 45.5q0 25 2 48.5t6 46.5h1024z" />
<glyph unicode="&#x2014;" horiz-adv-x="2048" d="M2048 668q4 -23 6 -45.5t2 -47.5q0 -27 -2 -50t-6 -44h-2048q-4 23 -6 46.5t-2 45.5q0 25 2 48.5t6 46.5h2048z" />
<glyph unicode="&#x2018;" horiz-adv-x="528" d="M102 1470q25 4 52.5 6.5t50.5 2.5t48.5 -2t49.5 -7l121 -456q-23 -4 -47.5 -6t-48.5 -2q-51 0 -99 8z" />
<glyph unicode="&#x2019;" horiz-adv-x="528" d="M223 1473q25 4 50.5 6t48.5 2q25 0 52 -2t52 -6l-127 -457q-27 -6 -52.5 -7t-47.5 -1q-25 0 -48.5 1t-48.5 7z" />
<glyph unicode="&#x201a;" horiz-adv-x="528" d="M223 225q25 4 50.5 7.5t48.5 3.5q25 0 52 -3.5t52 -7.5l-127 -456q-27 -4 -52.5 -5.5t-47.5 -1.5q-25 0 -48.5 1t-48.5 6z" />
<glyph unicode="&#x201c;" horiz-adv-x="927" d="M102 1470q25 4 52.5 6.5t50.5 2.5t48.5 -2t49.5 -7l121 -456q-23 -4 -47.5 -6t-48.5 -2q-51 0 -99 8zM501 1470q25 4 52.5 6.5t50.5 2.5t48.5 -2t49.5 -7l121 -456q-23 -4 -47.5 -6t-48.5 -2q-51 0 -99 8z" />
<glyph unicode="&#x201d;" horiz-adv-x="927" d="M223 1473q25 4 50.5 6t48.5 2q25 0 52 -2t52 -6l-127 -457q-27 -6 -52.5 -7t-47.5 -1q-25 0 -48.5 1t-48.5 7zM622 1473q25 4 50.5 6t48.5 2q25 0 52 -2t52 -6l-127 -457q-27 -6 -52.5 -7t-47.5 -1q-25 0 -48.5 1t-48.5 7z" />
<glyph unicode="&#x201e;" horiz-adv-x="927" d="M223 225q25 4 50.5 7.5t48.5 3.5q25 0 52 -3.5t52 -7.5l-127 -456q-27 -4 -52.5 -5.5t-47.5 -1.5q-25 0 -48.5 1t-48.5 6zM622 225q25 4 50.5 7.5t48.5 3.5q25 0 52 -3.5t52 -7.5l-127 -456q-27 -4 -52.5 -5.5t-47.5 -1.5q-25 0 -48.5 1t-48.5 6z" />
<glyph unicode="&#x2020;" horiz-adv-x="1005" d="M406 756h-295q-4 18 -6.5 42.5t-2.5 47.5q0 25 2 48.5t7 41.5h295v537q23 4 47 6t51 2q25 0 50.5 -2t47.5 -6v-537h293q4 -18 6 -42t2 -46q0 -27 -2 -50.5t-6 -41.5h-293v-1106q-41 -8 -98 -8q-27 0 -51.5 2t-46.5 6v1106z" />
<glyph unicode="&#x2021;" horiz-adv-x="1005" d="M406 150h-295q-4 20 -6.5 43.5t-2.5 48.5t2 48t7 42h295v502h-295q-4 20 -6.5 43.5t-2.5 48.5t2 47t7 43h295v457q23 4 47 6t51 2q25 0 50.5 -2t47.5 -6v-457h293q4 -20 6 -43t2 -47q0 -25 -2 -48.5t-6 -43.5h-293v-502h293q4 -18 6 -42t2 -48q0 -25 -2 -48.5t-6 -43.5 h-293v-500q-41 -8 -98 -8q-27 0 -51.5 2t-46.5 6v500z" />
<glyph unicode="&#x2022;" horiz-adv-x="833" d="M154 766q0 55 20.5 103.5t56 84t83.5 56t104 20.5q55 0 102 -20.5t83 -56t56.5 -84t20.5 -103.5t-20.5 -103.5t-56.5 -84t-83 -56t-102 -20.5t-103.5 20.5t-84 56t-56 84t-20.5 103.5z" />
<glyph unicode="&#x2026;" horiz-adv-x="1501" d="M637 0q-4 29 -7 56.5t-3 56.5t3 58.5t7 57.5q29 4 56.5 6.5t56.5 2.5t57.5 -2.5t56.5 -6.5q4 -29 7.5 -57.5t3.5 -56.5q0 -29 -3 -57.5t-8 -57.5q-29 -4 -56.5 -6t-55.5 -2q-29 0 -57.5 2t-57.5 6zM1141 0q-4 29 -7 56.5t-3 56.5t3 58.5t7 57.5q29 4 56.5 6.5t56.5 2.5 t57.5 -2.5t56.5 -6.5q4 -29 7.5 -57.5t3.5 -56.5q0 -29 -3 -57.5t-8 -57.5q-29 -4 -56.5 -6t-55.5 -2q-29 0 -57.5 2t-57.5 6zM133 0q-4 29 -7 56.5t-3 56.5t3 58.5t7 57.5q29 4 56.5 6.5t56.5 2.5t57.5 -2.5t56.5 -6.5q4 -29 7.5 -57.5t3.5 -56.5q0 -29 -3 -57.5t-8 -57.5 q-29 -4 -56.5 -6t-55.5 -2q-29 0 -57.5 2t-57.5 6z" />
<glyph unicode="&#x202f;" horiz-adv-x="393" />
<glyph unicode="&#x2030;" horiz-adv-x="3057" d="M1470 1450q25 4 50.5 6t50.5 2q27 0 54.5 -2t51.5 -6l-989 -1448q-29 -4 -53.5 -6t-48.5 -2q-57 0 -105 8zM1860 411q0 135 -46.5 210t-150.5 75q-100 0 -148.5 -74.5t-48.5 -210.5q0 -137 46 -211.5t151 -74.5q100 0 148.5 74.5t48.5 211.5zM1278 411q0 88 23.5 167 t70.5 138.5t120 94.5t171 35t170 -35t120 -94.5t71.5 -138.5t23.5 -167q0 -90 -23.5 -168.5t-71.5 -137t-120 -93.5t-170 -35t-171 35t-120 93.5t-70.5 137t-23.5 168.5zM2767 411q0 135 -46.5 210t-150.5 75q-100 0 -148.5 -74.5t-48.5 -210.5q0 -137 46 -211.5t151 -74.5 q100 0 148.5 74.5t48.5 211.5zM2185 411q0 88 23.5 167t70.5 138.5t120 94.5t171 35t170 -35t120 -94.5t71.5 -138.5t23.5 -167q0 -90 -23.5 -168.5t-71.5 -137t-120 -93.5t-170 -35t-171 35t-120 93.5t-70.5 137t-23.5 168.5zM672 1038q0 135 -46.5 210t-150.5 75 q-100 0 -148.5 -74.5t-48.5 -210.5q0 -137 46 -211.5t151 -74.5q100 0 148.5 74.5t48.5 211.5zM90 1038q0 88 23.5 167t70.5 138.5t120 94.5t171 35t170 -35t120 -94.5t71.5 -138.5t23.5 -167q0 -90 -23.5 -168.5t-71.5 -137t-120 -93.5t-170 -35t-171 35t-120 93.5 t-70.5 137t-23.5 168.5z" />
<glyph unicode="&#x2039;" horiz-adv-x="747" d="M100 547l340 452q25 4 50.5 6.5t52.5 2.5q29 0 57.5 -2t56.5 -7l-333 -450l333 -457q-29 -4 -56.5 -6t-55.5 -2q-57 0 -105 8z" />
<glyph unicode="&#x203a;" horiz-adv-x="747" d="M647 545l-342 -453q-25 -4 -49.5 -7t-52.5 -3q-29 0 -57.5 3t-57.5 7l336 451l-336 456q29 4 56.5 6.5t56.5 2.5q27 0 53.5 -2t50.5 -7z" />
<glyph unicode="&#x2044;" horiz-adv-x="450" d="M614 1450q25 4 50.5 6t50.5 2q27 0 54.5 -2t51.5 -6l-989 -1448q-29 -4 -53.5 -6t-48.5 -2q-57 0 -105 8z" />
<glyph unicode="&#x205f;" horiz-adv-x="491" />
<glyph unicode="&#x2070;" horiz-adv-x="921" d="M662 1038q0 135 -46.5 210t-150.5 75q-100 0 -148.5 -74.5t-48.5 -210.5q0 -137 46 -211.5t151 -74.5q100 0 148.5 74.5t48.5 211.5zM80 1038q0 88 23.5 167t70.5 138.5t120 94.5t171 35t170 -35t120 -94.5t71.5 -138.5t23.5 -167q0 -90 -23.5 -168.5t-71.5 -137 t-120 -93.5t-170 -35t-171 35t-120 93.5t-70.5 137t-23.5 168.5z" />
<glyph unicode="&#x2074;" horiz-adv-x="921" d="M338 930h201v162q37 6 79 6q41 0 82 -6v-162h99q4 -16 6 -34.5t2 -41.5q0 -45 -8 -70h-99v-157q-41 -6 -77 -6q-45 0 -84 6v157h-426l-17 27l336 666q82 -10 150 -50z" />
<glyph unicode="&#x2075;" horiz-adv-x="921" d="M766 901q0 -78 -29.5 -134t-83 -93t-126 -54.5t-158.5 -17.5h-21q-109 4 -209 37q4 39 12.5 74t30.5 69q98 -35 189 -34q102 0 159.5 34.5t57.5 114.5q0 49 -42 88t-149 39q-41 0 -75.5 -5t-81.5 -20l-23 21l21 426h483q4 -14 5 -32.5t1 -35.5q0 -20 -2 -38.5t-6 -34.5 h-328l-10 -154q16 4 34.5 6t39.5 2q141 0 226 -67.5t85 -190.5z" />
<glyph unicode="&#x2076;" horiz-adv-x="921" d="M137 952q0 102 32 194.5t96.5 163t158.5 114.5t221 53q8 -16 11 -37l6 -41v-31q0 -14 -3 -29q-123 -10 -215 -72.5t-127 -176.5q35 33 85.5 59.5t136.5 26.5q117 0 195.5 -71t78.5 -210q0 -72 -28.5 -127t-75.5 -92t-107.5 -56.5t-126.5 -19.5q-160 0 -249 91t-89 261z M485 1040q-76 0 -117.5 -36.5t-41.5 -106.5q0 -76 40 -116t111 -40q70 0 115 38t45 116t-44.5 111.5t-107.5 33.5z" />
<glyph unicode="&#x2077;" horiz-adv-x="921" d="M186 1305q-4 14 -5 32.5t-1 36.5q0 39 6 74h619l12 -18l-381 -822q-45 8 -82 24.5t-78 39.5l299 633h-389z" />
<glyph unicode="&#x2078;" horiz-adv-x="921" d="M774 1260q0 -70 -37 -116t-90 -75q29 -14 58.5 -34.5t54 -49.5t40 -64.5t15.5 -80.5q0 -66 -28.5 -110t-75.5 -72.5t-106.5 -41t-121.5 -12.5q-66 0 -127 12.5t-108 41t-76 72.5t-29 110q0 84 52.5 142t115.5 87q-47 29 -87 77t-40 114q0 94 84 154.5t215 60.5 q61 0 114.5 -16.5t92.5 -45.5t61.5 -67.5t22.5 -85.5zM641 852q0 59 -50 96t-112 56q-63 -18 -111.5 -54.5t-48.5 -99.5q0 -47 41 -81t123 -34q76 0 117 33t41 84zM350 1247q0 -53 41 -79.5t92 -43.5q20 6 43 16.5t41.5 26t29.5 35t11 45.5q0 39 -31.5 67.5t-93.5 28.5 q-70 0 -101.5 -28.5t-31.5 -67.5z" />
<glyph unicode="&#x2079;" horiz-adv-x="921" d="M795 1120q0 -102 -32 -194t-96.5 -163t-159.5 -115t-220 -52q-8 16 -11.5 35.5t-5.5 42.5v29q0 13 2 30q123 10 215.5 72.5t126.5 177.5q-35 -33 -85 -59.5t-136 -26.5q-117 0 -195.5 70.5t-78.5 210.5q0 70 28.5 125t75.5 93t107.5 57.5t126.5 19.5q160 0 249 -91.5 t89 -261.5zM446 1032q76 0 118 37t42 107q0 74 -40 114.5t-111 40.5q-70 0 -114 -39t-44 -114q0 -78 43 -112t106 -34z" />
<glyph unicode="&#x2080;" horiz-adv-x="921" d="M662 413q0 135 -46.5 210t-150.5 75q-100 0 -148.5 -74.5t-48.5 -210.5q0 -137 46 -211.5t151 -74.5q100 0 148.5 74.5t48.5 211.5zM80 413q0 88 23.5 167t70.5 138.5t120 94.5t171 35t170 -35t120 -94.5t71.5 -138.5t23.5 -167q0 -90 -23.5 -168.5t-71.5 -137 t-120 -93.5t-170 -35t-171 35t-120 93.5t-70.5 137t-23.5 168.5z" />
<glyph unicode="&#x2081;" horiz-adv-x="921" d="M229 538q-27 27 -42 59.5t-25 71.5l395 162h35v-684h190q8 -35 9 -72q0 -39 -9 -73h-559q-6 18 -8 34.5t-2 38.5q0 18 2 36t8 36h197v469z" />
<glyph unicode="&#x2082;" horiz-adv-x="921" d="M465 149h313q2 -16 3 -34.5t1 -39.5q0 -20 -1 -38.5t-3 -34.5h-633l-10 24l139 145q74 75 135.5 145.5t101.5 134t40 114.5q0 66 -49 89.5t-121 23.5q-61 0 -100 -10.5t-74 -24.5q-10 27 -21.5 64.5t-17.5 80.5q63 23 118.5 34t123.5 11q145 0 233 -65.5t88 -188.5 q0 -92 -47 -175t-139 -175z" />
<glyph unicode="&#x2083;" horiz-adv-x="921" d="M739 823l17 -31l-201 -291q55 -6 97 -29.5t70 -55t42 -70.5t14 -76q0 -70 -28.5 -124t-78.5 -92t-120 -57.5t-150 -19.5q-37 0 -66.5 2t-57 6t-55 10.5t-62.5 16.5q4 37 15 74t26 65q53 -16 100 -25.5t94 -9.5q84 0 144.5 36t60.5 114q0 66 -53 96.5t-121 30.5 q-20 0 -38.5 -1t-41.5 -7l-22 24l178 273h-287q-6 37 -6 69q0 35 6 72h524z" />
<glyph unicode="&#x2084;" horiz-adv-x="921" d="M338 305h201v162q37 6 79 6q41 0 82 -6v-162h99q4 -16 6 -34.5t2 -41.5q0 -45 -8 -70h-99v-157q-41 -6 -77 -6q-45 0 -84 6v157h-426l-17 27l336 666q82 -10 150 -50z" />
<glyph unicode="&#x2085;" horiz-adv-x="921" d="M766 276q0 -78 -29.5 -134t-83 -93t-126 -54.5t-158.5 -17.5h-21q-109 4 -209 37q4 39 12.5 74t30.5 69q98 -35 189 -34q102 0 159.5 34.5t57.5 114.5q0 49 -42 88t-149 39q-41 0 -75.5 -5t-81.5 -20l-23 21l21 426h483q4 -14 5 -32.5t1 -35.5q0 -20 -2 -38.5t-6 -34.5 h-328l-10 -154q16 4 34.5 6t39.5 2q141 0 226 -67.5t85 -190.5z" />
<glyph unicode="&#x2086;" horiz-adv-x="921" d="M137 327q0 102 32 194.5t96.5 163t158.5 114.5t221 53q8 -16 11 -37l6 -41v-31q0 -14 -3 -29q-123 -10 -215 -72.5t-127 -176.5q35 33 85.5 59.5t136.5 26.5q117 0 195.5 -71t78.5 -210q0 -72 -28.5 -127t-75.5 -92t-107.5 -56.5t-126.5 -19.5q-160 0 -249 91t-89 261z M485 415q-76 0 -117.5 -36.5t-41.5 -106.5q0 -76 40 -116t111 -40q70 0 115 38t45 116t-44.5 111.5t-107.5 33.5z" />
<glyph unicode="&#x2087;" horiz-adv-x="921" d="M186 680q-4 14 -5 32.5t-1 36.5q0 39 6 74h619l12 -18l-381 -822q-45 8 -82 24.5t-78 39.5l299 633h-389z" />
<glyph unicode="&#x2088;" horiz-adv-x="921" d="M774 635q0 -70 -37 -116t-90 -75q29 -14 58.5 -34.5t54 -49.5t40 -64.5t15.5 -80.5q0 -66 -28.5 -110t-75.5 -72.5t-106.5 -41t-121.5 -12.5q-66 0 -127 12.5t-108 41t-76 72.5t-29 110q0 84 52.5 142t115.5 87q-47 29 -87 77t-40 114q0 94 84 154.5t215 60.5 q61 0 114.5 -16.5t92.5 -45.5t61.5 -67.5t22.5 -85.5zM641 227q0 59 -50 96t-112 56q-63 -18 -111.5 -54.5t-48.5 -99.5q0 -47 41 -81t123 -34q76 0 117 33t41 84zM350 622q0 -53 41 -79.5t92 -43.5q20 6 43 16.5t41.5 26t29.5 35t11 45.5q0 39 -31.5 67.5t-93.5 28.5 q-70 0 -101.5 -28.5t-31.5 -67.5z" />
<glyph unicode="&#x2089;" horiz-adv-x="921" d="M795 495q0 -102 -32 -194t-96.5 -163t-159.5 -115t-220 -52q-8 16 -11.5 35.5t-5.5 42.5v29q0 13 2 30q123 10 215.5 72.5t126.5 177.5q-35 -33 -85 -59.5t-136 -26.5q-117 0 -195.5 70.5t-78.5 210.5q0 70 28.5 125t75.5 93t107.5 57.5t126.5 19.5q160 0 249 -91.5 t89 -261.5zM446 407q76 0 118 37t42 107q0 74 -40 114.5t-111 40.5q-70 0 -114 -39t-44 -114q0 -78 43 -112t106 -34z" />
<glyph unicode="&#x20ac;" d="M219 956q47 242 197.5 379.5t408.5 137.5q117 0 201 -16.5t150 -39.5q-4 -47 -17.5 -87t-32.5 -85q-68 25 -138 35t-146 10q-168 0 -264.5 -85t-133.5 -249h523q4 -14 6 -31.5t2 -33.5q0 -20 -2 -40t-6 -36h-541q-2 -25 -3 -50.5t-1 -53.5v-44q0 -22 2 -42h543 q4 -14 6 -30.5t2 -35.5q0 -20 -2 -39.5t-6 -36.5h-525q39 -168 140.5 -245.5t273.5 -77.5q86 0 155.5 14t131.5 41q41 -80 57 -170q-86 -37 -177 -53.5t-194 -16.5q-266 0 -417.5 132.5t-196.5 375.5h-166q-10 31 -10 70q0 37 10 72h150q-2 20 -2 42v44v52q0 26 2 52h-150 q-10 31 -10 68q0 39 10 73h170z" />
<glyph unicode="&#x2113;" horiz-adv-x="937" d="M381 604q100 115 155.5 248t55.5 256q0 98 -26.5 136t-69.5 38q-57 0 -86 -76t-29 -245v-357zM381 406q0 -74 9 -124.5t27.5 -80t45 -42t59.5 -12.5q66 0 122 43t97 95l101 -99q-57 -86 -145.5 -144t-198.5 -58q-131 0 -206 74.5t-81 234.5q-27 -16 -50 -33l-48 -35 l-33 64l-33 61l80 58l78 59v438q0 150 19.5 252.5t56 164.5t93 89t130.5 27q117 0 184.5 -78t67.5 -246q0 -176 -86 -349t-289 -359z" />
<glyph unicode="&#x2122;" horiz-adv-x="1691" d="M285 1298h-232q-6 37 -6 72t6 78h619q4 -20 6 -37.5t2 -38.5q0 -18 -2 -36.5t-6 -37.5h-230v-669q-23 -4 -41 -6t-41 -2q-18 0 -37.5 2t-37.5 6v669zM805 1448q25 2 45 4t41 2q18 0 39.5 -2t46.5 -4l203 -449l200 449q23 2 42.5 4t39.5 2t42 -2l44 -4l41 -819 q-25 -4 -42 -6t-38 -2q-16 0 -35.5 1t-41.5 7l-31 522l-176 -367q-16 -4 -28.5 -5t-29.5 -1q-20 0 -59 6l-162 361l-26 -516q-39 -8 -76 -8q-39 0 -80 8z" />
<glyph unicode="&#x2126;" horiz-adv-x="1495" d="M741 1487q152 0 267.5 -50.5t194.5 -142.5t119 -222t40 -290q0 -182 -58.5 -338.5t-144.5 -261.5h238q4 -20 5 -45.5t1 -48.5t-1 -45.5t-5 -42.5h-545l-10 29q43 45 95 119.5t97 172t76 213t31 244.5q0 262 -101.5 393.5t-298.5 131.5t-298 -131.5t-101 -393.5 q0 -133 30.5 -249.5t76 -212t97.5 -169t95 -118.5l-10 -29h-545q-4 20 -5 43t-1 45q0 23 1 48.5t5 45.5h238q-86 104 -144.5 261t-58.5 339q0 160 40 290t118.5 222t194 142.5t267.5 50.5z" />
<glyph unicode="&#x212e;" horiz-adv-x="1345" d="M305 242q0 -51 42 -90t100.5 -66t122 -40t106.5 -13q117 0 212 47t167 129h86q-78 -98 -198 -153.5t-267 -55.5q-123 0 -230.5 42t-188.5 114.5t-128 171t-47 209.5t47 208t128 169.5t188.5 114.5t230.5 42q125 0 233.5 -43t188.5 -117.5t125 -175t45 -213.5h-951 q-12 0 -12 -16v-264zM305 563q0 -14 10 -14h717q12 0 12 14v268q0 51 -39.5 91.5t-98 67t-122 39.5t-108.5 13q-201 0 -344 -141q-10 -14 -18.5 -32.5t-8.5 -37.5v-268z" />
<glyph unicode="&#x2153;" horiz-adv-x="2211" d="M1521 1450q25 4 50.5 6t50.5 2q27 0 54.5 -2t51.5 -6l-989 -1448q-29 -4 -53.5 -6t-48.5 -2q-57 0 -105 8zM231 1163q-27 27 -42 59.5t-25 71.5l395 162h35v-684h190q8 -35 9 -72q0 -39 -9 -73h-559q-6 18 -8 34.5t-2 38.5q0 18 2 36t8 36h197v469zM2003 823l17 -31 l-201 -291q55 -6 97 -29.5t70 -55t42 -70.5t14 -76q0 -70 -28.5 -124t-78.5 -92t-120 -57.5t-150 -19.5q-37 0 -66.5 2t-57 6t-55 10.5t-62.5 16.5q4 37 15 74t26 65q53 -16 100 -25.5t94 -9.5q84 0 144.5 36t60.5 114q0 66 -53 96.5t-121 30.5q-20 0 -38.5 -1t-41.5 -7 l-22 24l178 273h-287q-6 37 -6 69q0 35 6 72h524z" />
<glyph unicode="&#x2154;" horiz-adv-x="2211" d="M1527 1450q25 4 50.5 6t50.5 2q27 0 54.5 -2t51.5 -6l-989 -1448q-29 -4 -53.5 -6t-48.5 -2q-57 0 -105 8zM465 774h313q2 -16 3 -34.5t1 -39.5q0 -20 -1 -38.5t-3 -34.5h-633l-10 24l139 145q74 75 135.5 145.5t101.5 134t40 114.5q0 66 -49 89.5t-121 23.5 q-61 0 -100 -10.5t-74 -24.5q-10 27 -21.5 64.5t-17.5 80.5q63 23 118.5 34t123.5 11q145 0 233 -65.5t88 -188.5q0 -92 -47 -175t-139 -175zM2029 823l17 -31l-201 -291q55 -6 97 -29.5t70 -55t42 -70.5t14 -76q0 -70 -28.5 -124t-78.5 -92t-120 -57.5t-150 -19.5 q-37 0 -66.5 2t-57 6t-55 10.5t-62.5 16.5q4 37 15 74t26 65q53 -16 100 -25.5t94 -9.5q84 0 144.5 36t60.5 114q0 66 -53 96.5t-121 30.5q-20 0 -38.5 -1t-41.5 -7l-22 24l178 273h-287q-6 37 -6 69q0 35 6 72h524z" />
<glyph unicode="&#x2155;" horiz-adv-x="2211" d="M1544 1450q25 4 50.5 6t50.5 2q27 0 54.5 -2t51.5 -6l-989 -1448q-29 -4 -53.5 -6t-48.5 -2q-57 0 -105 8zM229 1163q-27 27 -42 59.5t-25 71.5l395 162h35v-684h190q8 -35 9 -72q0 -39 -9 -73h-559q-6 18 -8 34.5t-2 38.5q0 18 2 36t8 36h197v469zM2054 276 q0 -78 -29.5 -134t-83 -93t-126 -54.5t-158.5 -17.5h-21q-109 4 -209 37q4 39 12.5 74t30.5 69q98 -35 189 -34q102 0 159.5 34.5t57.5 114.5q0 49 -42 88t-149 39q-41 0 -75.5 -5t-81.5 -20l-23 21l21 426h483q4 -14 5 -32.5t1 -35.5q0 -20 -2 -38.5t-6 -34.5h-328 l-10 -154q16 4 34.5 6t39.5 2q141 0 226 -67.5t85 -190.5z" />
<glyph unicode="&#x2156;" horiz-adv-x="2211" d="M1538 1450q25 4 50.5 6t50.5 2q27 0 54.5 -2t51.5 -6l-989 -1448q-29 -4 -53.5 -6t-48.5 -2q-57 0 -105 8zM473 774h313q2 -16 3 -34.5t1 -39.5q0 -20 -1 -38.5t-3 -34.5h-633l-10 24l139 145q74 75 135.5 145.5t101.5 134t40 114.5q0 66 -49 89.5t-121 23.5 q-61 0 -100 -10.5t-74 -24.5q-10 27 -21.5 64.5t-17.5 80.5q63 23 118.5 34t123.5 11q145 0 233 -65.5t88 -188.5q0 -92 -47 -175t-139 -175zM2052 276q0 -78 -29.5 -134t-83 -93t-126 -54.5t-158.5 -17.5h-21q-109 4 -209 37q4 39 12.5 74t30.5 69q98 -35 189 -34 q102 0 159.5 34.5t57.5 114.5q0 49 -42 88t-149 39q-41 0 -75.5 -5t-81.5 -20l-23 21l21 426h483q4 -14 5 -32.5t1 -35.5q0 -20 -2 -38.5t-6 -34.5h-328l-10 -154q16 4 34.5 6t39.5 2q141 0 226 -67.5t85 -190.5z" />
<glyph unicode="&#x2157;" horiz-adv-x="2211" d="M1495 1450q25 4 50.5 6t50.5 2q27 0 54.5 -2t51.5 -6l-989 -1448q-29 -4 -53.5 -6t-48.5 -2q-57 0 -105 8zM2046 276q0 -78 -29.5 -134t-83 -93t-126 -54.5t-158.5 -17.5h-21q-109 4 -209 37q4 39 12.5 74t30.5 69q98 -35 189 -34q102 0 159.5 34.5t57.5 114.5 q0 49 -42 88t-149 39q-41 0 -75.5 -5t-81.5 -20l-23 21l21 426h483q4 -14 5 -32.5t1 -35.5q0 -20 -2 -38.5t-6 -34.5h-328l-10 -154q16 4 34.5 6t39.5 2q141 0 226 -67.5t85 -190.5zM745 1448l17 -31l-201 -291q55 -6 97 -29.5t70 -55t42 -70.5t14 -76q0 -70 -28.5 -124 t-78.5 -92t-120 -57.5t-150 -19.5q-37 0 -66.5 2t-57 6t-55 10.5t-62.5 16.5q4 37 15 74t26 65q53 -16 100 -25.5t94 -9.5q84 0 144.5 36t60.5 114q0 66 -53 96.5t-121 30.5q-20 0 -38.5 -1t-41.5 -7l-22 24l178 273h-287q-6 37 -6 69q0 35 6 72h524z" />
<glyph unicode="&#x2158;" horiz-adv-x="2211" d="M1548 1450q25 4 50.5 6t50.5 2q27 0 54.5 -2t51.5 -6l-989 -1448q-29 -4 -53.5 -6t-48.5 -2q-57 0 -105 8zM2073 276q0 -78 -29.5 -134t-83 -93t-126 -54.5t-158.5 -17.5h-21q-109 4 -209 37q4 39 12.5 74t30.5 69q98 -35 189 -34q102 0 159.5 34.5t57.5 114.5 q0 49 -42 88t-149 39q-41 0 -75.5 -5t-81.5 -20l-23 21l21 426h483q4 -14 5 -32.5t1 -35.5q0 -20 -2 -38.5t-6 -34.5h-328l-10 -154q16 4 34.5 6t39.5 2q141 0 226 -67.5t85 -190.5zM356 930h201v162q37 6 79 6q41 0 82 -6v-162h99q4 -16 6 -34.5t2 -41.5q0 -45 -8 -70h-99 v-157q-41 -6 -77 -6q-45 0 -84 6v157h-426l-17 27l336 666q82 -10 150 -50z" />
<glyph unicode="&#x2159;" horiz-adv-x="2211" d="M1538 1450q25 4 50.5 6t50.5 2q27 0 54.5 -2t51.5 -6l-989 -1448q-29 -4 -53.5 -6t-48.5 -2q-57 0 -105 8zM217 1163q-27 27 -42 59.5t-25 71.5l395 162h35v-684h190q8 -35 9 -72q0 -39 -9 -73h-559q-6 18 -8 34.5t-2 38.5q0 18 2 36t8 36h197v469zM1380 327 q0 102 32 194.5t96.5 163t158.5 114.5t221 53q8 -16 11 -37l6 -41v-31q0 -14 -3 -29q-123 -10 -215 -72.5t-127 -176.5q35 33 85.5 59.5t136.5 26.5q117 0 195.5 -71t78.5 -210q0 -72 -28.5 -127t-75.5 -92t-107.5 -56.5t-126.5 -19.5q-160 0 -249 91t-89 261zM1728 415 q-76 0 -117.5 -36.5t-41.5 -106.5q0 -76 40 -116t111 -40q70 0 115 38t45 116t-44.5 111.5t-107.5 33.5z" />
<glyph unicode="&#x215a;" horiz-adv-x="2211" d="M1499 1450q25 4 50.5 6t50.5 2q27 0 54.5 -2t51.5 -6l-989 -1448q-29 -4 -53.5 -6t-48.5 -2q-57 0 -105 8zM1388 327q0 102 32 194.5t96.5 163t158.5 114.5t221 53q8 -16 11 -37l6 -41v-31q0 -14 -3 -29q-123 -10 -215 -72.5t-127 -176.5q35 33 85.5 59.5t136.5 26.5 q117 0 195.5 -71t78.5 -210q0 -72 -28.5 -127t-75.5 -92t-107.5 -56.5t-126.5 -19.5q-160 0 -249 91t-89 261zM1736 415q-76 0 -117.5 -36.5t-41.5 -106.5q0 -76 40 -116t111 -40q70 0 115 38t45 116t-44.5 111.5t-107.5 33.5zM768 901q0 -78 -29.5 -134t-83 -93t-126 -54.5 t-158.5 -17.5h-21q-109 4 -209 37q4 39 12.5 74t30.5 69q98 -35 189 -34q102 0 159.5 34.5t57.5 114.5q0 49 -42 88t-149 39q-41 0 -75.5 -5t-81.5 -20l-23 21l21 426h483q4 -14 5 -32.5t1 -35.5q0 -20 -2 -38.5t-6 -34.5h-328l-10 -154q16 4 34.5 6t39.5 2q141 0 226 -67.5 t85 -190.5z" />
<glyph unicode="&#x215b;" horiz-adv-x="2211" d="M1527 1450q25 4 50.5 6t50.5 2q27 0 54.5 -2t51.5 -6l-989 -1448q-29 -4 -53.5 -6t-48.5 -2q-57 0 -105 8zM219 1163q-27 27 -42 59.5t-25 71.5l395 162h35v-684h190q8 -35 9 -72q0 -39 -9 -73h-559q-6 18 -8 34.5t-2 38.5q0 18 2 36t8 36h197v469zM2027 635 q0 -70 -37 -116t-90 -75q29 -14 58.5 -34.5t54 -49.5t40 -64.5t15.5 -80.5q0 -66 -28.5 -110t-75.5 -72.5t-106.5 -41t-121.5 -12.5q-66 0 -127 12.5t-108 41t-76 72.5t-29 110q0 84 52.5 142t115.5 87q-47 29 -87 77t-40 114q0 94 84 154.5t215 60.5q61 0 114.5 -16.5 t92.5 -45.5t61.5 -67.5t22.5 -85.5zM1894 227q0 59 -50 96t-112 56q-63 -18 -111.5 -54.5t-48.5 -99.5q0 -47 41 -81t123 -34q76 0 117 33t41 84zM1603 622q0 -53 41 -79.5t92 -43.5q20 6 43 16.5t41.5 26t29.5 35t11 45.5q0 39 -31.5 67.5t-93.5 28.5q-70 0 -101.5 -28.5 t-31.5 -67.5z" />
<glyph unicode="&#x215c;" horiz-adv-x="2211" d="M1478 1450q25 4 50.5 6t50.5 2q27 0 54.5 -2t51.5 -6l-989 -1448q-29 -4 -53.5 -6t-48.5 -2q-57 0 -105 8zM2019 635q0 -70 -37 -116t-90 -75q29 -14 58.5 -34.5t54 -49.5t40 -64.5t15.5 -80.5q0 -66 -28.5 -110t-75.5 -72.5t-106.5 -41t-121.5 -12.5q-66 0 -127 12.5 t-108 41t-76 72.5t-29 110q0 84 52.5 142t115.5 87q-47 29 -87 77t-40 114q0 94 84 154.5t215 60.5q61 0 114.5 -16.5t92.5 -45.5t61.5 -67.5t22.5 -85.5zM1886 227q0 59 -50 96t-112 56q-63 -18 -111.5 -54.5t-48.5 -99.5q0 -47 41 -81t123 -34q76 0 117 33t41 84z M1595 622q0 -53 41 -79.5t92 -43.5q20 6 43 16.5t41.5 26t29.5 35t11 45.5q0 39 -31.5 67.5t-93.5 28.5q-70 0 -101.5 -28.5t-31.5 -67.5zM737 1448l17 -31l-201 -291q55 -6 97 -29.5t70 -55t42 -70.5t14 -76q0 -70 -28.5 -124t-78.5 -92t-120 -57.5t-150 -19.5 q-37 0 -66.5 2t-57 6t-55 10.5t-62.5 16.5q4 37 15 74t26 65q53 -16 100 -25.5t94 -9.5q84 0 144.5 36t60.5 114q0 66 -53 96.5t-121 30.5q-20 0 -38.5 -1t-41.5 -7l-22 24l178 273h-287q-6 37 -6 69q0 35 6 72h524z" />
<glyph unicode="&#x215d;" horiz-adv-x="2211" d="M1478 1450q25 4 50.5 6t50.5 2q27 0 54.5 -2t51.5 -6l-989 -1448q-29 -4 -53.5 -6t-48.5 -2q-57 0 -105 8zM766 901q0 -78 -29.5 -134t-83 -93t-126 -54.5t-158.5 -17.5h-21q-109 4 -209 37q4 39 12.5 74t30.5 69q98 -35 189 -34q102 0 159.5 34.5t57.5 114.5 q0 49 -42 88t-149 39q-41 0 -75.5 -5t-81.5 -20l-23 21l21 426h483q4 -14 5 -32.5t1 -35.5q0 -20 -2 -38.5t-6 -34.5h-328l-10 -154q16 4 34.5 6t39.5 2q141 0 226 -67.5t85 -190.5zM2027 635q0 -70 -37 -116t-90 -75q29 -14 58.5 -34.5t54 -49.5t40 -64.5t15.5 -80.5 q0 -66 -28.5 -110t-75.5 -72.5t-106.5 -41t-121.5 -12.5q-66 0 -127 12.5t-108 41t-76 72.5t-29 110q0 84 52.5 142t115.5 87q-47 29 -87 77t-40 114q0 94 84 154.5t215 60.5q61 0 114.5 -16.5t92.5 -45.5t61.5 -67.5t22.5 -85.5zM1894 227q0 59 -50 96t-112 56 q-63 -18 -111.5 -54.5t-48.5 -99.5q0 -47 41 -81t123 -34q76 0 117 33t41 84zM1603 622q0 -53 41 -79.5t92 -43.5q20 6 43 16.5t41.5 26t29.5 35t11 45.5q0 39 -31.5 67.5t-93.5 28.5q-70 0 -101.5 -28.5t-31.5 -67.5z" />
<glyph unicode="&#x215e;" horiz-adv-x="2211" d="M1400 1450q25 4 50.5 6t50.5 2q27 0 54.5 -2t51.5 -6l-989 -1448q-29 -4 -53.5 -6t-48.5 -2q-57 0 -105 8zM1993 635q0 -70 -37 -116t-90 -75q29 -14 58.5 -34.5t54 -49.5t40 -64.5t15.5 -80.5q0 -66 -28.5 -110t-75.5 -72.5t-106.5 -41t-121.5 -12.5q-66 0 -127 12.5 t-108 41t-76 72.5t-29 110q0 84 52.5 142t115.5 87q-47 29 -87 77t-40 114q0 94 84 154.5t215 60.5q61 0 114.5 -16.5t92.5 -45.5t61.5 -67.5t22.5 -85.5zM1860 227q0 59 -50 96t-112 56q-63 -18 -111.5 -54.5t-48.5 -99.5q0 -47 41 -81t123 -34q76 0 117 33t41 84z M1569 622q0 -53 41 -79.5t92 -43.5q20 6 43 16.5t41.5 26t29.5 35t11 45.5q0 39 -31.5 67.5t-93.5 28.5q-70 0 -101.5 -28.5t-31.5 -67.5zM186 1305q-4 14 -5 32.5t-1 36.5q0 39 6 74h619l12 -18l-381 -822q-45 8 -82 24.5t-78 39.5l299 633h-389z" />
<glyph unicode="&#x2202;" horiz-adv-x="1247" d="M211 1382q145 90 360 91q160 0 270.5 -59.5t178 -163t98.5 -240t31 -289.5q0 -360 -133 -553t-426 -193q-82 0 -167 22.5t-153.5 78t-111.5 148.5t-43 235q0 127 43 221t112.5 155.5t159.5 91t186 29.5q98 0 174 -17t138 -48q-8 76 -32 147.5t-69 129t-113.5 92 t-166.5 34.5q-84 0 -148.5 -17t-134.5 -52q-18 37 -34.5 76.5t-18.5 80.5zM940 705q-90 45 -164 60t-145 15q-152 0 -226.5 -92t-74.5 -233q0 -86 23.5 -144.5t62.5 -94.5t88 -50t102 -14q98 0 163 40.5t102.5 113.5t53 174.5t15.5 224.5z" />
<glyph unicode="&#x2206;" horiz-adv-x="1234" d="M500 1448q27 4 57.5 6t63.5 2q29 0 59.5 -2t58.5 -6l480 -1448h-1199zM942 182l-330 1049l-325 -1049h655z" />
<glyph unicode="&#x220f;" horiz-adv-x="1536" d="M295 1266h-236q-4 20 -6 44.5t-2 47.5t2 46t6 44h1418q4 -20 6 -44t2 -46q0 -23 -2 -47.5t-6 -44.5h-234v-1635q-47 -6 -102 -6q-57 0 -107 6v1635h-530v-1635q-49 -6 -107 -6q-57 0 -102 6v1635z" />
<glyph unicode="&#x2211;" horiz-adv-x="1130" d="M43 -350l475 921l-442 859l12 18h963q4 -20 6 -45t2 -47q0 -23 -2 -47.5t-6 -42.5h-664l361 -699l-396 -753h703q4 -20 6 -45t2 -48t-2 -47t-6 -43h-1000z" />
<glyph unicode="&#x2212;" d="M1049 815q4 -20 6 -46t2 -48q0 -23 -2 -48.5t-6 -43.5h-869q-4 18 -5 43.5t-1 48.5t1 48.5t5 45.5h869z" />
<glyph unicode="&#x2215;" horiz-adv-x="839" d="M569 1473q25 4 48.5 6t50.5 2q23 0 48 -2t52 -6l-500 -1473q-25 -4 -49 -6t-51 -2q-23 0 -47.5 2t-48.5 6z" />
<glyph unicode="&#x2219;" horiz-adv-x="493" d="M135 453q-4 29 -6 55.5t-2 54.5q0 29 2 56.5t6 56.5q29 4 55.5 6t55.5 2t56.5 -2t55.5 -6q4 -29 6.5 -55.5t2.5 -55.5t-2.5 -56.5t-6.5 -55.5q-29 -4 -55.5 -6.5t-54.5 -2.5q-29 0 -56.5 2.5t-56.5 6.5z" />
<glyph unicode="&#x221a;" d="M283 666h-174q-4 20 -6.5 43.5t-2.5 46.5t2 47t7 43h327l215 -637l406 1235q25 4 53.5 5t54.5 1q25 0 53.5 -1t51.5 -5l-516 -1444q-29 -4 -54.5 -6t-54.5 -2t-54.5 2t-53.5 6z" />
<glyph unicode="&#x221e;" horiz-adv-x="1622" d="M698 557q-45 59 -80.5 97t-65.5 59.5t-55.5 29t-50.5 7.5q-74 0 -120.5 -54.5t-46.5 -140.5q0 -88 47 -140.5t118 -52.5q27 0 53.5 6.5t56.5 27t64.5 59.5t79.5 102zM911 551q45 -59 82 -97t67 -59.5t55.5 -29t49.5 -7.5q74 0 121 54.5t47 140.5q0 88 -47 140t-119 52 q-29 0 -55.5 -6t-55 -26.5t-64.5 -59.5t-81 -102zM803 426q-106 -139 -194.5 -189.5t-170.5 -50.5q-72 0 -133 27t-107 76t-72 116.5t-26 149.5q0 80 27 147.5t73 116.5t108.5 77t133.5 28q86 0 175.5 -54.5t191.5 -185.5q106 135 193.5 186.5t171.5 51.5q72 0 133 -27 t107 -76t71.5 -116.5t25.5 -149.5q0 -80 -26.5 -147.5t-72.5 -116.5t-108.5 -77t-134.5 -28q-84 0 -174 54.5t-192 187.5z" />
<glyph unicode="&#x222b;" horiz-adv-x="755" d="M201 1077q-10 201 92 298.5t289 97.5q51 0 90 -4.5t73 -14.5q-4 -51 -11 -89t-21 -77q-18 4 -46 9.5t-67 5.5q-45 0 -83 -9.5t-65.5 -35t-41 -70.5t-9.5 -117l62 -1169q6 -104 -21.5 -180t-81 -124.5t-129 -71t-168.5 -22.5q-51 0 -80.5 5.5t-64.5 15.5q4 51 11.5 88 t19.5 78l48 -9q28 -5 66 -6q45 0 83 9.5t65 35t40 70.5t9 117z" />
<glyph unicode="&#x2248;" d="M162 907q41 49 115.5 86t156.5 37q45 0 91 -13t91.5 -28.5t90.5 -28t92 -12.5q43 0 85 14.5t91 61.5q33 -31 54.5 -67.5t33.5 -73.5q-47 -47 -111.5 -78t-150.5 -31q-45 0 -91 12.5t-93.5 27.5l-92.5 28.5t-86 13.5q-49 0 -93 -16.5t-95 -63.5q-63 57 -88 131zM166 545 q41 51 115.5 87t156.5 36q45 0 91 -13.5t91.5 -29t90.5 -27.5t92 -12q43 0 85 14t93 62q31 -31 52.5 -68t33.5 -74q-47 -47 -111.5 -77.5t-150.5 -30.5q-45 0 -91 12t-91 27.5t-90.5 29t-90.5 13.5q-49 0 -93 -16.5t-95 -63.5q-63 57 -88 131z" />
<glyph unicode="&#x2260;" d="M676 1004l127 266q20 4 36.5 6t32.5 2q18 0 38 -2t38 -6l-127 -266h228q4 -20 6 -46t2 -49t-2 -48t-6 -44h-314l-102 -211h416q4 -18 6 -43.5t2 -48.5t-2 -48.5t-6 -43.5h-502l-123 -258q-35 -6 -72 -6q-33 0 -71 6l122 258h-223q-4 18 -5 42.5t-1 47.5t1 49.5t5 44.5 h309l101 211h-410q-4 18 -5 44t-1 48q0 23 1 48.5t5 46.5h496z" />
<glyph unicode="&#x2264;" d="M1035 1208q10 -57 10 -94q0 -29 -2 -54.5t-6 -45.5l-672 -260l672 -250q4 -23 6 -47.5t2 -49.5q0 -31 -2 -57.5t-8 -50.5l-852 346q-12 51 -13 113q0 55 13 104zM1049 188q4 -20 6 -46t2 -48q0 -23 -2 -48.5t-6 -43.5h-869q-4 18 -5 43.5t-1 48.5t1 48.5t5 45.5h869z" />
<glyph unicode="&#x2265;" d="M1049 188q4 -20 6 -46t2 -48q0 -23 -2 -48.5t-6 -43.5h-869q-4 18 -5 43.5t-1 48.5t1 48.5t5 45.5h869zM178 299q-4 29 -6 52.5t-2 41.5q0 29 2 54.5t6 45.5l670 261l-670 249q-6 23 -8 48.5t-2 48.5q0 33 3 59.5t7 48.5l854 -346l8 -53q4 -27 5 -60q0 -55 -13 -104z" />
<glyph unicode="&#x25ca;" horiz-adv-x="1103" d="M834 741l-279 553l-283 -553l281 -553zM61 741l392 740q25 4 51 6t49 2t49.5 -2t50.5 -6l389 -740l-391 -741q-25 -4 -52.5 -6t-49.5 -2q-23 0 -48.5 2t-49.5 6z" />
<glyph unicode="&#xe000;" horiz-adv-x="1060" d="M0 1060h1060v-1060h-1060v1060z" />
<glyph unicode="&#xf506;" horiz-adv-x="2211" d="M1491 1450q25 4 50.5 6t50.5 2q27 0 54.5 -2t51.5 -6l-989 -1448q-29 -4 -53.5 -6t-48.5 -2q-57 0 -105 8zM206 1163q-27 27 -42 59.5t-25 71.5l395 162h35v-684h190q8 -35 9 -72q0 -39 -9 -73h-559q-6 18 -8 34.5t-2 38.5q0 18 2 36t8 36h197v469zM1456 680 q-4 14 -5 32.5t-1 36.5q0 39 6 74h619l12 -18l-381 -822q-45 8 -82 24.5t-78 39.5l299 633h-389z" />
<glyph unicode="&#xf507;" horiz-adv-x="2211" d="M1517 1450q25 4 50.5 6t50.5 2q27 0 54.5 -2t51.5 -6l-989 -1448q-29 -4 -53.5 -6t-48.5 -2q-57 0 -105 8zM461 774h313q2 -16 3 -34.5t1 -39.5q0 -20 -1 -38.5t-3 -34.5h-633l-10 24l139 145q74 75 135.5 145.5t101.5 134t40 114.5q0 66 -49 89.5t-121 23.5 q-61 0 -100 -10.5t-74 -24.5q-10 27 -21.5 64.5t-17.5 80.5q63 23 118.5 34t123.5 11q145 0 233 -65.5t88 -188.5q0 -92 -47 -175t-139 -175zM1464 680q-4 14 -5 32.5t-1 36.5q0 39 6 74h619l12 -18l-381 -822q-45 8 -82 24.5t-78 39.5l299 633h-389z" />
<glyph unicode="&#xf508;" horiz-adv-x="2211" d="M1464 1450q25 4 50.5 6t50.5 2q27 0 54.5 -2t51.5 -6l-989 -1448q-29 -4 -53.5 -6t-48.5 -2q-57 0 -105 8zM1448 680q-4 14 -5 32.5t-1 36.5q0 39 6 74h619l12 -18l-381 -822q-45 8 -82 24.5t-78 39.5l299 633h-389zM727 1448l17 -31l-201 -291q55 -6 97 -29.5t70 -55 t42 -70.5t14 -76q0 -70 -28.5 -124t-78.5 -92t-120 -57.5t-150 -19.5q-37 0 -66.5 2t-57 6t-55 10.5t-62.5 16.5q4 37 15 74t26 65q53 -16 100 -25.5t94 -9.5q84 0 144.5 36t60.5 114q0 66 -53 96.5t-121 30.5q-20 0 -38.5 -1t-41.5 -7l-22 24l178 273h-287q-6 37 -6 69 q0 35 6 72h524z" />
<glyph unicode="&#xf509;" horiz-adv-x="2211" d="M1499 1450q25 4 50.5 6t50.5 2q27 0 54.5 -2t51.5 -6l-989 -1448q-29 -4 -53.5 -6t-48.5 -2q-57 0 -105 8zM338 930h201v162q37 6 79 6q41 0 82 -6v-162h99q4 -16 6 -34.5t2 -41.5q0 -45 -8 -70h-99v-157q-41 -6 -77 -6q-45 0 -84 6v157h-426l-17 27l336 666 q82 -10 150 -50zM1470 680q-4 14 -5 32.5t-1 36.5q0 39 6 74h619l12 -18l-381 -822q-45 8 -82 24.5t-78 39.5l299 633h-389z" />
<glyph unicode="&#xf50a;" horiz-adv-x="2211" d="M1460 1450q25 4 50.5 6t50.5 2q27 0 54.5 -2t51.5 -6l-989 -1448q-29 -4 -53.5 -6t-48.5 -2q-57 0 -105 8zM782 901q0 -78 -29.5 -134t-83 -93t-126 -54.5t-158.5 -17.5h-21q-109 4 -209 37q4 39 12.5 74t30.5 69q98 -35 189 -34q102 0 159.5 34.5t57.5 114.5 q0 49 -42 88t-149 39q-41 0 -75.5 -5t-81.5 -20l-23 21l21 426h483q4 -14 5 -32.5t1 -35.5q0 -20 -2 -38.5t-6 -34.5h-328l-10 -154q16 4 34.5 6t39.5 2q141 0 226 -67.5t85 -190.5zM1456 680q-4 14 -5 32.5t-1 36.5q0 39 6 74h619l12 -18l-381 -822q-45 8 -82 24.5 t-78 39.5l299 633h-389z" />
<glyph unicode="&#xf50b;" horiz-adv-x="2211" d="M1476 1450q25 4 50.5 6t50.5 2q27 0 54.5 -2t51.5 -6l-989 -1448q-29 -4 -53.5 -6t-48.5 -2q-57 0 -105 8zM131 952q0 102 32 194.5t96.5 163t158.5 114.5t221 53q8 -16 11 -37l6 -41v-31q0 -14 -3 -29q-123 -10 -215 -72.5t-127 -176.5q35 33 85.5 59.5t136.5 26.5 q117 0 195.5 -71t78.5 -210q0 -72 -28.5 -127t-75.5 -92t-107.5 -56.5t-126.5 -19.5q-160 0 -249 91t-89 261zM479 1040q-76 0 -117.5 -36.5t-41.5 -106.5q0 -76 40 -116t111 -40q70 0 115 38t45 116t-44.5 111.5t-107.5 33.5zM1458 680q-4 14 -5 32.5t-1 36.5q0 39 6 74 h619l12 -18l-381 -822q-45 8 -82 24.5t-78 39.5l299 633h-389z" />
<glyph unicode="&#xf50c;" horiz-adv-x="2211" d="M1501 1450q25 4 50.5 6t50.5 2q27 0 54.5 -2t51.5 -6l-989 -1448q-29 -4 -53.5 -6t-48.5 -2q-57 0 -105 8zM209 1163q-27 27 -42 59.5t-25 71.5l395 162h35v-684h190q8 -35 9 -72q0 -39 -9 -73h-559q-6 18 -8 34.5t-2 38.5q0 18 2 36t8 36h197v469zM2046 495 q0 -102 -32 -194t-96.5 -163t-159.5 -115t-220 -52q-8 16 -11.5 35.5t-5.5 42.5v29q0 13 2 30q123 10 215.5 72.5t126.5 177.5q-35 -33 -85 -59.5t-136 -26.5q-117 0 -195.5 70.5t-78.5 210.5q0 70 28.5 125t75.5 93t107.5 57.5t126.5 19.5q160 0 249 -91.5t89 -261.5z M1697 407q76 0 118 37t42 107q0 74 -40 114.5t-111 40.5q-70 0 -114 -39t-44 -114q0 -78 43 -112t106 -34z" />
<glyph unicode="&#xf50d;" horiz-adv-x="2211" d="M1527 1450q25 4 50.5 6t50.5 2q27 0 54.5 -2t51.5 -6l-989 -1448q-29 -4 -53.5 -6t-48.5 -2q-57 0 -105 8zM465 774h313q2 -16 3 -34.5t1 -39.5q0 -20 -1 -38.5t-3 -34.5h-633l-10 24l139 145q74 75 135.5 145.5t101.5 134t40 114.5q0 66 -49 89.5t-121 23.5 q-61 0 -100 -10.5t-74 -24.5q-10 27 -21.5 64.5t-17.5 80.5q63 23 118.5 34t123.5 11q145 0 233 -65.5t88 -188.5q0 -92 -47 -175t-139 -175zM2067 495q0 -102 -32 -194t-96.5 -163t-159.5 -115t-220 -52q-8 16 -11.5 35.5t-5.5 42.5v29q0 13 2 30q123 10 215.5 72.5 t126.5 177.5q-35 -33 -85 -59.5t-136 -26.5q-117 0 -195.5 70.5t-78.5 210.5q0 70 28.5 125t75.5 93t107.5 57.5t126.5 19.5q160 0 249 -91.5t89 -261.5zM1718 407q76 0 118 37t42 107q0 74 -40 114.5t-111 40.5q-70 0 -114 -39t-44 -114q0 -78 43 -112t106 -34z" />
<glyph unicode="&#xf50e;" horiz-adv-x="2211" d="M1521 1450q25 4 50.5 6t50.5 2q27 0 54.5 -2t51.5 -6l-989 -1448q-29 -4 -53.5 -6t-48.5 -2q-57 0 -105 8zM342 930h201v162q37 6 79 6q41 0 82 -6v-162h99q4 -16 6 -34.5t2 -41.5q0 -45 -8 -70h-99v-157q-41 -6 -77 -6q-45 0 -84 6v157h-426l-17 27l336 666 q82 -10 150 -50zM2079 495q0 -102 -32 -194t-96.5 -163t-159.5 -115t-220 -52q-8 16 -11.5 35.5t-5.5 42.5v29q0 13 2 30q123 10 215.5 72.5t126.5 177.5q-35 -33 -85 -59.5t-136 -26.5q-117 0 -195.5 70.5t-78.5 210.5q0 70 28.5 125t75.5 93t107.5 57.5t126.5 19.5 q160 0 249 -91.5t89 -261.5zM1730 407q76 0 118 37t42 107q0 74 -40 114.5t-111 40.5q-70 0 -114 -39t-44 -114q0 -78 43 -112t106 -34z" />
<glyph unicode="&#xf50f;" horiz-adv-x="2211" d="M1476 1450q25 4 50.5 6t50.5 2q27 0 54.5 -2t51.5 -6l-989 -1448q-29 -4 -53.5 -6t-48.5 -2q-57 0 -105 8zM770 901q0 -78 -29.5 -134t-83 -93t-126 -54.5t-158.5 -17.5h-21q-109 4 -209 37q4 39 12.5 74t30.5 69q98 -35 189 -34q102 0 159.5 34.5t57.5 114.5 q0 49 -42 88t-149 39q-41 0 -75.5 -5t-81.5 -20l-23 21l21 426h483q4 -14 5 -32.5t1 -35.5q0 -20 -2 -38.5t-6 -34.5h-328l-10 -154q16 4 34.5 6t39.5 2q141 0 226 -67.5t85 -190.5zM2048 495q0 -102 -32 -194t-96.5 -163t-159.5 -115t-220 -52q-8 16 -11.5 35.5t-5.5 42.5 v29q0 13 2 30q123 10 215.5 72.5t126.5 177.5q-35 -33 -85 -59.5t-136 -26.5q-117 0 -195.5 70.5t-78.5 210.5q0 70 28.5 125t75.5 93t107.5 57.5t126.5 19.5q160 0 249 -91.5t89 -261.5zM1699 407q76 0 118 37t42 107q0 74 -40 114.5t-111 40.5q-70 0 -114 -39t-44 -114 q0 -78 43 -112t106 -34z" />
<glyph unicode="&#xf510;" horiz-adv-x="2211" d="M1394 1450q25 4 50.5 6t50.5 2q27 0 54.5 -2t51.5 -6l-989 -1448q-29 -4 -53.5 -6t-48.5 -2q-57 0 -105 8zM2018 495q0 -102 -32 -194t-96.5 -163t-159.5 -115t-220 -52q-8 16 -11.5 35.5t-5.5 42.5v29q0 13 2 30q123 10 215.5 72.5t126.5 177.5q-35 -33 -85 -59.5 t-136 -26.5q-117 0 -195.5 70.5t-78.5 210.5q0 70 28.5 125t75.5 93t107.5 57.5t126.5 19.5q160 0 249 -91.5t89 -261.5zM1669 407q76 0 118 37t42 107q0 74 -40 114.5t-111 40.5q-70 0 -114 -39t-44 -114q0 -78 43 -112t106 -34zM182 1305q-4 14 -5 32.5t-1 36.5q0 39 6 74 h619l12 -18l-381 -822q-45 8 -82 24.5t-78 39.5l299 633h-389z" />
<glyph unicode="&#xf511;" horiz-adv-x="2211" d="M1499 1450q25 4 50.5 6t50.5 2q27 0 54.5 -2t51.5 -6l-989 -1448q-29 -4 -53.5 -6t-48.5 -2q-57 0 -105 8zM2063 495q0 -102 -32 -194t-96.5 -163t-159.5 -115t-220 -52q-8 16 -11.5 35.5t-5.5 42.5v29q0 13 2 30q123 10 215.5 72.5t126.5 177.5q-35 -33 -85 -59.5 t-136 -26.5q-117 0 -195.5 70.5t-78.5 210.5q0 70 28.5 125t75.5 93t107.5 57.5t126.5 19.5q160 0 249 -91.5t89 -261.5zM1714 407q76 0 118 37t42 107q0 74 -40 114.5t-111 40.5q-70 0 -114 -39t-44 -114q0 -78 43 -112t106 -34zM774 1260q0 -70 -37 -116t-90 -75 q29 -14 58.5 -34.5t54 -49.5t40 -64.5t15.5 -80.5q0 -66 -28.5 -110t-75.5 -72.5t-106.5 -41t-121.5 -12.5q-66 0 -127 12.5t-108 41t-76 72.5t-29 110q0 84 52.5 142t115.5 87q-47 29 -87 77t-40 114q0 94 84 154.5t215 60.5q61 0 114.5 -16.5t92.5 -45.5t61.5 -67.5 t22.5 -85.5zM641 852q0 59 -50 96t-112 56q-63 -18 -111.5 -54.5t-48.5 -99.5q0 -47 41 -81t123 -34q76 0 117 33t41 84zM350 1247q0 -53 41 -79.5t92 -43.5q20 6 43 16.5t41.5 26t29.5 35t11 45.5q0 39 -31.5 67.5t-93.5 28.5q-70 0 -101.5 -28.5t-31.5 -67.5z" />
<glyph unicode="&#xf605;" horiz-adv-x="1073" d="M420 1122q29 4 62.5 6t58.5 2q23 0 55.5 -2t56.5 -6l404 -1122q-16 -4 -51 -6t-54 -2q-29 0 -57.5 2t-54.5 6l-78 233h-461l-74 -233q-27 -4 -57.5 -6t-56.5 -2q-23 0 -48.5 2t-50.5 6zM713 395l-183 557l-180 -557h363z" />
<glyph unicode="&#xf606;" horiz-adv-x="1069" d="M174 1122q53 8 133 13.5t170 5.5q96 0 178 -17.5t140.5 -53.5t91.5 -89t33 -127q0 -106 -59.5 -175t-141.5 -87q49 -6 97 -25.5t86 -54.5t61.5 -85t23.5 -118q0 -90 -36 -152.5t-100.5 -102.5t-152.5 -57t-190 -17q-35 0 -77 1t-86 4l-88 6q-44 3 -83 9v1122zM371 150 q27 -4 69.5 -6.5t75.5 -2.5q55 0 104.5 9.5t85 31t56 56t20.5 84.5q0 96 -73.5 141t-196.5 45h-141v-358zM504 664q109 0 165 46t56 124q0 80 -63.5 118.5t-186.5 38.5q-27 0 -56.5 -1t-47.5 -5v-321h133z" />
<glyph unicode="&#xf607;" horiz-adv-x="1038" d="M889 936q-53 18 -101.5 28.5t-121.5 10.5q-90 0 -155 -32t-105.5 -87t-60 -131t-19.5 -162q0 -188 89 -299.5t263 -111.5q66 0 119 11t106 34q20 -41 33.5 -80t17.5 -80q-78 -35 -148.5 -46t-154.5 -11q-135 0 -236.5 44t-169 121.5t-101 184t-33.5 233.5 q0 125 35.5 231.5t105.5 185.5t170 123t229 44q82 0 152.5 -13.5t132.5 -37.5q-4 -39 -15.5 -76t-31.5 -84z" />
<glyph unicode="&#xf608;" horiz-adv-x="1216" d="M174 1122q31 2 71 6.5t83 6.5l86 4q43 2 80 2q152 0 267.5 -41t192 -117t115.5 -181.5t39 -234.5q0 -274 -157.5 -430.5t-469.5 -156.5q-80 0 -164 5t-143 15v1122zM375 162q23 -4 58.5 -7t66.5 -3q88 0 161.5 23.5t126 73.5t82 129t29.5 191q0 100 -29.5 175t-82 124.5 t-125 74t-160.5 24.5q-27 0 -64 -2t-63 -7v-796z" />
<glyph unicode="&#xf609;" horiz-adv-x="1001" d="M174 1122h721q4 -23 6 -42t2 -42t-2 -45t-6 -45h-522v-274h426q8 -41 8 -86q0 -49 -8 -88h-426v-328h534q8 -39 8 -86q0 -23 -2 -44.5t-6 -41.5h-733v1122z" />
<glyph unicode="&#xf60a;" horiz-adv-x="968" d="M174 1122h719q6 -43 6 -84q0 -47 -6 -90h-518v-309h422q4 -23 6 -43.5t2 -42.5q0 -23 -2 -44.5t-6 -43.5h-422v-465q-25 -4 -49.5 -6t-49.5 -2t-50 2t-52 6v1122z" />
<glyph unicode="&#xf60b;" horiz-adv-x="1148" d="M827 575q51 6 101 7q49 0 98 -7v-536q-78 -33 -168 -46t-174 -13q-135 0 -241.5 36.5t-181.5 110.5t-115 183.5t-40 252.5q0 125 39 231.5t112 185.5t177.5 123t235.5 44q166 0 297 -51q-4 -37 -15.5 -74t-31.5 -84q-53 16 -103.5 26.5t-126.5 10.5q-96 0 -165.5 -32 t-116 -87t-69 -131t-22.5 -162q0 -201 97.5 -305t279.5 -104q35 0 70 3t63 11v407z" />
<glyph unicode="&#xf60c;" horiz-adv-x="1255" d="M174 1122q25 4 50.5 6t49.5 2q27 0 52.5 -2t48.5 -6v-458h506v458q23 4 48 6t50 2q27 0 53.5 -2t48.5 -6v-1122q-23 -4 -49 -6t-51 -2t-50.5 2t-49.5 6v487h-506v-487q-23 -4 -48.5 -6t-50.5 -2q-29 0 -54 2t-48 6v1122z" />
<glyph unicode="&#xf60d;" horiz-adv-x="548" d="M174 1122q25 4 50.5 6t49.5 2q27 0 52.5 -2t48.5 -6v-1122q-23 -4 -48.5 -6t-50.5 -2q-29 0 -54 2t-48 6v1122z" />
<glyph unicode="&#xf60e;" horiz-adv-x="757" d="M399 950h-243q-6 37 -6 86q0 47 6 84h440v-751q0 -207 -92 -298t-264 -91q-35 0 -83 6t-83 16q0 29 5 73t21 91q23 -6 52.5 -10t56.5 -4q41 0 75.5 6t60.5 26.5t40 56t14 97.5v612z" />
<glyph unicode="&#xf60f;" horiz-adv-x="1122" d="M426 571l403 551q31 4 57.5 6t49.5 2q29 0 58.5 -3t60.5 -5l-404 -536l445 -586q-29 -4 -59.5 -6t-59.5 -2q-25 0 -53.5 1t-59.5 7zM174 1122q25 4 50.5 6t51.5 2q25 0 49.5 -2t49.5 -6v-1122q-25 -4 -49.5 -6t-51.5 -2q-23 0 -49 2t-51 6v1122z" />
<glyph unicode="&#xf610;" horiz-adv-x="901" d="M174 1122q23 4 48.5 6t51.5 2q25 0 50.5 -2t48.5 -6v-948h491q6 -47 6 -86q0 -43 -6 -88h-690v1122z" />
<glyph unicode="&#xf611;" horiz-adv-x="1468" d="M186 1122q27 4 54.5 6t56.5 2t55.5 -2t53.5 -6l317 -714l326 714q20 4 47.5 6t56.5 2q27 0 55.5 -2t51.5 -6l59 -1122q-25 -4 -49.5 -6t-48.5 -2q-25 0 -48.5 2t-44.5 6l-41 829l-290 -618q-39 -8 -88 -8q-43 0 -78 8l-281 623l-37 -834q-23 -4 -44 -6t-44 -2 q-25 0 -48 2t-44 6z" />
<glyph unicode="&#xf612;" horiz-adv-x="1263" d="M174 1120q23 4 45.5 6t44.5 2q51 0 92 -8l551 -809v809q20 4 42 6t50 2q35 0 55.5 -2t32.5 -6v-1120q-18 -4 -41.5 -6t-41.5 -2q-53 0 -95 8l-553 803v-803q-23 -4 -45 -6t-47 -2q-23 0 -46 2t-44 6v1120z" />
<glyph unicode="&#xf613;" horiz-adv-x="1236" d="M618 -25q-121 0 -216 44t-160.5 122t-100.5 184.5t-35 233.5t35 234.5t100.5 186.5t161 123t215.5 44q121 0 216.5 -44t161 -123t100 -186.5t34.5 -234.5t-34.5 -233.5t-100 -184.5t-161 -122t-216.5 -44zM618 145q141 0 221.5 110t80.5 304q0 199 -80 306.5t-222 107.5 q-141 0 -222 -107.5t-81 -306.5q0 -195 81 -304.5t222 -109.5z" />
<glyph unicode="&#xf614;" horiz-adv-x="1052" d="M174 1122q63 8 144 14.5t165 6.5q100 0 189.5 -20.5t156 -66.5t104.5 -120t38 -182q0 -109 -40 -187t-107.5 -129t-155.5 -75.5t-183 -24.5h-56q-28 0 -54 4v-342q-47 -8 -99 -8q-23 0 -50 2t-52 6v1122zM375 512q51 -6 98 -6q137 0 215 55t78 191q0 109 -70.5 165 t-203.5 56q-74 0 -117 -6v-455z" />
<glyph unicode="&#xf615;" horiz-adv-x="1251" d="M1194 -111q-2 -47 -7 -83.5t-22 -79.5l-401 73q6 90 35 160zM625 -25q-121 0 -215.5 44t-160 122t-100 184.5t-34.5 233.5t34.5 234.5t100 186.5t160 123t215.5 44t216 -44t160.5 -123t100.5 -186.5t35 -234.5t-35 -233.5t-100.5 -184.5t-160.5 -122t-216 -44zM625 145 q141 0 222 110t81 304q0 199 -81 306.5t-222 107.5t-221 -107.5t-80 -306.5q0 -195 80 -304.5t221 -109.5z" />
<glyph unicode="&#xf616;" horiz-adv-x="1079" d="M174 1122q76 10 151.5 15.5t155.5 5.5q96 0 181.5 -20.5t150 -62.5t101 -108.5t36.5 -158.5q0 -68 -19.5 -120t-50 -90t-69.5 -67t-78 -49q-6 -4 -12 -6t-12 -6l333 -455q-25 -4 -54 -4h-62h-56q-27 0 -53 4l-368 500v8q49 16 101 37.5t96 52.5t73 74t29 104 q0 94 -72 147.5t-191 53.5q-29 0 -56.5 -2t-55.5 -6v-969q-47 -6 -97 -6q-51 0 -102 6v1122z" />
<glyph unicode="&#xf617;" horiz-adv-x="956" d="M90 39q4 41 16.5 83t28.5 83q59 -23 134 -41.5t147 -18.5q135 0 191.5 47.5t56.5 118.5q0 68 -41 106t-113 64l-117 43q-74 27 -125 55.5t-84.5 63.5t-49 80t-15.5 104q0 68 25.5 125.5t75.5 100.5t124 67.5t168 24.5q72 0 159 -15.5t154 -44.5q-4 -39 -15 -80.5 t-28 -78.5q-51 23 -124.5 40t-135.5 17q-102 0 -151 -37t-49 -100t38.5 -92t102.5 -54l145 -57q53 -20 100.5 -46t83 -61.5t56 -85t20.5 -116.5q0 -78 -29.5 -143.5t-88 -112.5t-142.5 -74t-194 -27q-94 0 -173 16.5t-151 45.5z" />
<glyph unicode="&#xf618;" horiz-adv-x="976" d="M387 950h-354q-8 35 -8 86q0 23 2 43.5t6 40.5h911q6 -41 6 -84q0 -47 -6 -86h-356v-950h-49q-6 -2 -15 -2h-14h-63q-32 0 -60 2v950z" />
<glyph unicode="&#xf619;" horiz-adv-x="1216" d="M150 1122q51 6 102 6q49 0 98 -6v-553q0 -217 58.5 -316t199.5 -99q143 0 200.5 99t57.5 316v551q29 4 53.5 6t47.5 2q51 0 100 -6v-594q0 -127 -24.5 -229t-80 -173t-142.5 -108.5t-212 -37.5t-212 37.5t-142 108.5t-79.5 173t-24.5 229v594z" />
<glyph unicode="&#xf61a;" horiz-adv-x="1122" d="M41 1120q29 4 57.5 7t51.5 3q25 0 54 -2t54 -8l309 -927l301 929q25 4 51.5 6t53.5 2q25 0 52.5 -2t55.5 -8l-411 -1120q-27 -4 -58.5 -6t-56.5 -2q-23 0 -52.5 2t-58.5 6z" />
<glyph unicode="&#xf61b;" horiz-adv-x="1640" d="M51 1120q16 4 33.5 5t36.5 3h59q20 0 41 -2t41 -6l213 -907l250 907q29 4 54.5 6t47.5 2q23 0 48.5 -2t50.5 -6l252 -921l217 921q39 8 92 8q29 0 53.5 -2t48.5 -6l-309 -1120q-23 -4 -51.5 -6t-54.5 -2q-29 0 -60 2t-59 6l-238 846l-246 -846q-29 0 -59.5 -4t-56.5 -4 q-23 0 -50.5 2t-50.5 6z" />
<glyph unicode="&#xf61c;" horiz-adv-x="1093" d="M340 586l-254 536q51 6 107 6q31 0 59.5 -2t58.5 -6l228 -538l-279 -582q-29 -4 -53.5 -6t-52.5 -2q-55 0 -113 6zM557 582l227 538q31 4 60.5 6t58.5 2q51 0 105 -6l-252 -530l299 -594q-59 -6 -113 -6q-57 0 -104 8z" />
<glyph unicode="&#xf61d;" horiz-adv-x="1036" d="M420 395l-391 727q23 4 54.5 6t59.5 2q27 0 55.5 -2t51.5 -6l278 -549l271 549q18 4 46.5 6t55.5 2t55.5 -2t51.5 -6l-387 -727v-395q-47 -8 -101 -8q-27 0 -51.5 2t-48.5 6v395z" />
<glyph unicode="&#xf61e;" horiz-adv-x="980" d="M47 18l582 932h-510q-4 20 -6 43t-2 45q0 45 8 84h811l10 -18l-584 -932h547q6 -43 6 -90q0 -43 -6 -82h-842z" />
<glyph unicode="&#xf61f;" horiz-adv-x="1654" d="M827 233h-456l-142 -233q-25 -4 -53.5 -6t-54.5 -2q-23 0 -52.5 3t-54.5 7l699 1120h835q8 -39 8 -84q0 -51 -8 -90h-520v-274h426q6 -47 6 -86q0 -45 -6 -88h-426v-328h535q6 -43 6 -86q0 -47 -6 -86h-736v233zM467 395h360v555h-20z" />
<glyph unicode="&#xf620;" horiz-adv-x="1263" d="M174 1120q23 4 45.5 6t44.5 2q51 0 92 -8l551 -809v809q20 4 42 6t52 2q35 0 54.5 -2t31.5 -6v-1100q0 -72 -6 -135q-8 -68 -36.5 -117t-72.5 -79.5t-99.5 -46t-116.5 -15.5q-37 0 -83 6.5t-79 16.5q-2 6 -2 22q0 59 26 129q20 -6 50 -10t55 -4q39 0 72.5 6t58.5 25.5 t39 54.5t14 90v43l-551 797v-803q-23 -4 -45 -6t-47 -2q-23 0 -46 2t-44 6v1120z" />
<glyph unicode="&#xf621;" horiz-adv-x="1607" d="M618 -25q-121 0 -216 44t-160.5 122t-100.5 184.5t-35 233.5t35 234.5t100.5 186.5t161 123t215.5 44q51 0 106.5 -7t96.5 -18h690q6 -43 7 -84q0 -47 -7 -90h-522v-274h426q4 -23 6 -43.5t2 -42.5q0 -23 -2 -44.5t-6 -43.5h-426v-328h535q4 -23 6 -43t2 -43t-2 -44.5 t-6 -41.5h-705q-39 -10 -96.5 -17.5t-104.5 -7.5zM623 145q53 0 93 4.5t75 18.5v780q-35 14 -75 19.5t-93 5.5q-145 0 -226.5 -107.5t-81.5 -306.5q0 -195 80.5 -304.5t227.5 -109.5z" />
<glyph unicode="&#xf622;" horiz-adv-x="1241" d="M201 651v469q31 4 70 7l83 7q43 3 85 5t79 2q154 0 268.5 -41t191.5 -117t116 -181.5t39 -234.5q0 -279 -157 -433t-468 -154q-82 0 -165 6t-142 14v496h-142q-4 16 -6 36.5t-2 38.5q0 20 2 42t6 38h142zM399 651h240q4 -16 6 -37.5t2 -40.5q0 -20 -2 -40.5t-6 -36.5 h-240v-336q25 -4 61 -6t64 -2q88 0 162 23.5t127 73.5t83 129t30 191q0 100 -30 175t-82 124.5t-125 74t-161 24.5q-29 0 -64.5 -2t-64.5 -7v-307z" />
<glyph unicode="&#xf623;" horiz-adv-x="1296" d="M195 811h-138q-4 14 -6 34.5t-2 37.5q0 16 2 36.5t6 36.5h138v166q25 4 50 6t50 2q27 0 52.5 -2t47.5 -6v-166h506v166q23 4 48.5 6t49.5 2q27 0 53.5 -2t49.5 -6v-166h137q4 -16 6 -35.5t2 -37.5q0 -16 -2 -37t-6 -35h-137v-811q-23 -4 -49.5 -6t-51.5 -2t-50 2t-50 6 v487h-506v-487q-23 -4 -48 -6t-50 -2q-29 0 -54.5 2t-47.5 6v811zM901 664v147h-506v-147h506z" />
<glyph unicode="&#xf624;" horiz-adv-x="1284" d="M174 1122q25 4 50.5 6t49.5 2q27 0 52.5 -2t48.5 -6v-1122q-23 -4 -48.5 -6t-50.5 -2q-29 0 -54 2t-48 6v1122zM919 950h-243q-6 37 -6 86q0 47 6 84h440v-751q0 -207 -92 -298t-264 -91q-35 0 -83 6t-83 16q0 29 5 73t21 91q23 -6 52.5 -10t56.5 -4q41 0 75.5 6 t60.5 26.5t40 56t14 97.5v612z" />
<glyph unicode="&#xf625;" horiz-adv-x="548" d="M174 1122q25 4 50.5 6t49.5 2q27 0 52.5 -2t48.5 -6v-1122q-23 -4 -48.5 -6t-50.5 -2q-29 0 -54 2t-48 6v1122zM168 1274q-8 47 -8 104q0 27 2 53.5t6 53.5q29 6 56.5 8t53.5 2q27 0 55.5 -2t57.5 -8q8 -47 8 -105q0 -27 -2 -53.5t-6 -52.5q-29 -6 -56.5 -8t-54.5 -2 t-55 2t-57 8z" />
<glyph unicode="&#xf626;" horiz-adv-x="548" d="M174 1122q25 4 50.5 6t49.5 2q27 0 52.5 -2t48.5 -6v-1122q-23 -4 -48.5 -6t-50.5 -2q-29 0 -54 2t-48 6v1122z" />
<glyph unicode="&#xf627;" horiz-adv-x="1236" d="M618 -25q-92 0 -167.5 25t-137.5 72l-55 -72q-31 -6 -74 -6q-53 0 -78 6l123 156q-123 158 -123 403q0 127 35 234.5t100.5 186.5t161 123t215.5 44q92 0 170 -26.5t140 -73.5l57 73q14 4 33.5 6t40.5 2q43 0 78 -6l-127 -161q59 -78 89.5 -179.5t30.5 -222.5 q0 -127 -34.5 -233.5t-100 -184.5t-161 -122t-216.5 -44zM315 559q0 -143 43 -237l453 575q-76 76 -193 76q-141 0 -222 -107.5t-81 -306.5zM618 145q141 0 221.5 110t80.5 304q0 135 -41 234l-451 -576q75 -72 190 -72z" />
<glyph unicode="&#xf628;" horiz-adv-x="1052" d="M764 571q0 123 -77 178.5t-206 55.5q-53 0 -108 -6v-463q29 -2 51 -3t49 -1q135 0 213 53t78 186zM174 1120q23 4 49.5 6t50.5 2q51 0 99 -8v-151q29 4 54 4h54q92 0 180.5 -20.5t157 -67.5t109.5 -124t41 -188q0 -106 -40 -184t-107.5 -128t-154.5 -73.5t-182 -23.5h-56 q-28 0 -56 4v-168q-49 -6 -99 -6q-51 0 -100 6v1120z" />
<glyph unicode="&#xf629;" horiz-adv-x="976" d="M387 485h-209q-4 16 -5 37t-1 39t1 40t5 38h209v311h-354q-8 35 -8 86q0 23 2 43.5t6 40.5h911q6 -41 6 -84q0 -47 -6 -86h-356v-311h209q4 -16 6 -37.5t2 -38.5q0 -18 -2 -39.5t-6 -38.5h-209v-485h-39q-14 -2 -30 -2h-30h-52q-28 0 -50 2v485z" />
<glyph unicode="&#xf62a;" horiz-adv-x="1124" d="M428 571l403 551q31 4 57.5 6t49.5 2q29 0 58.5 -3t60.5 -5l-404 -536l445 -586q-29 -4 -59.5 -6t-59.5 -2q-25 0 -53.5 1t-59.5 7zM176 1122q25 4 50.5 6t51.5 2q25 0 49.5 -2t49.5 -6v-1122q-25 -4 -49.5 -6t-51.5 -2q-23 0 -49 2t-51 6v1122z" />
<glyph unicode="&#xf62b;" horiz-adv-x="911" d="M182 389l-129 -88q-8 35 -8 88q0 51 8 84l129 88v561q45 6 101 6q51 0 98 -6v-422l215 150q10 -41 10 -84q0 -23 -2 -44.5t-8 -41.5l-215 -152v-356h489q4 -23 6.5 -43t2.5 -43t-2.5 -43t-6.5 -43h-688v389z" />
<glyph unicode="&#xf62c;" horiz-adv-x="1296" d="M883 727l166 191h16v-191h182q8 -33 8 -72q0 -45 -8 -84h-182v-206q0 -96 -35 -169t-99.5 -122t-155.5 -74t-202 -25q-90 0 -172 19.5t-143 61.5t-98 107.5t-37 158.5q0 47 14.5 94t39 89t58 75.5t72.5 56.5q-61 31 -102 86t-41 141q0 70 28.5 123t77.5 87t115 51.5 t139 17.5q49 0 103.5 -6.5t113.5 -24.5q-4 -94 -41 -151q-51 16 -91 20t-72 4q-98 0 -139.5 -37t-41.5 -90q0 -61 42 -96t139 -35h346zM883 571h-316q-111 0 -174 -66.5t-63 -158.5q0 -96 64.5 -149.5t193.5 -53.5q90 0 146.5 21.5t89 58.5t45 84t14.5 99v165z" />
<glyph unicode="&#xf637;" horiz-adv-x="1898" d="M1030 39q4 41 16.5 83t28.5 83q59 -23 134 -41.5t147 -18.5q135 0 191.5 47.5t56.5 118.5q0 68 -41 106t-113 64l-117 43q-74 27 -125 55.5t-84.5 63.5t-49 80t-15.5 104q0 68 25.5 125.5t75.5 100.5t124 67.5t168 24.5q72 0 159 -15.5t154 -44.5q-4 -39 -15 -80.5 t-28 -78.5q-51 23 -124.5 40t-135.5 17q-102 0 -151 -37t-49 -100t38.5 -92t102.5 -54l145 -57q53 -20 100.5 -46t83 -61.5t56 -85t20.5 -116.5q0 -78 -29.5 -143.5t-88 -112.5t-142.5 -74t-194 -27q-94 0 -173 16.5t-151 45.5zM90 39q4 41 16.5 83t28.5 83 q59 -23 134 -41.5t147 -18.5q135 0 191.5 47.5t56.5 118.5q0 68 -41 106t-113 64l-117 43q-74 27 -125 55.5t-84.5 63.5t-49 80t-15.5 104q0 68 25.5 125.5t75.5 100.5t124 67.5t168 24.5q72 0 159 -15.5t154 -44.5q-4 -39 -15 -80.5t-28 -78.5q-51 23 -124.5 40t-135.5 17 q-102 0 -151 -37t-49 -100t38.5 -92t102.5 -54l145 -57q53 -20 100.5 -46t83 -61.5t56 -85t20.5 -116.5q0 -78 -29.5 -143.5t-88 -112.5t-142.5 -74t-194 -27q-94 0 -173 16.5t-151 45.5z" />
<glyph unicode="&#xf638;" horiz-adv-x="1130" d="M207 475q-2 18 -2 38v42v37q0 18 2 35h-103q-8 25 -8 55q0 31 8 57h123q45 176 177.5 282.5t338.5 106.5h27q76 0 140.5 -14t117.5 -35q-6 -61 -27 -112l-18 -47q-45 16 -90 26t-115 10q-139 0 -218 -53t-116 -164h476q6 -29 6 -53q0 -29 -6 -59h-498q-2 -16 -3 -35 t-1 -37v-42q0 -19 4 -38h498q6 -29 6 -53q0 -29 -6 -60h-471q37 -113 125 -161.5t223 -48.5q53 0 103 12t97 33q18 -41 32.5 -81t19.5 -81q-78 -31 -149 -43t-155 -12q-217 0 -347 103t-173 279h-121q-8 25 -8 56t8 57h103z" />
<glyph unicode="&#xf639;" horiz-adv-x="944" d="M80 41q4 41 16.5 83t28.5 83q59 -23 135 -40t148 -17q133 0 189 45t56 116q0 66 -50 106t-152 75l-78 26q-59 20 -107.5 45t-82 59.5t-53 84t-19.5 116.5q0 115 79.5 196t225.5 101v172q27 6 61 6q31 0 62 -6v-166q68 -4 142.5 -19t133.5 -38q-4 -39 -15.5 -81t-27.5 -79 q-51 23 -125 39.5t-135 16.5q-102 0 -151.5 -35t-49.5 -96q0 -35 12.5 -56.5t36 -39t57.5 -30.5l79 -30l96 -35q57 -20 106.5 -46t84 -61.5t54 -84t19.5 -113.5q0 -129 -80 -223.5t-237 -122.5v-172q-29 -6 -58 -6q-35 0 -65 6v160q-94 0 -179 16t-157 45z" />
<glyph unicode="&#xf63a;" horiz-adv-x="899" d="M748 176q41 -61 47 -149q-47 -20 -94.5 -29.5t-98.5 -13.5v-164q-29 -6 -57 -6q-35 0 -66 6v170q-170 23 -260 138.5t-90 291.5q0 86 23.5 160.5t68.5 132t109.5 94.5t148.5 49v172q27 6 62 6q31 0 61 -6v-168q53 -4 95 -11t83 -22q-2 -37 -10 -75.5t-29 -79.5 q-47 16 -83.5 22t-90.5 6q-123 0 -185.5 -72.5t-62.5 -207.5q0 -141 68 -209t184 -68q47 0 91.5 8.5t85.5 24.5z" />
<glyph unicode="&#xf63b;" horiz-adv-x="1021" d="M924 174q4 -20 6 -42.5t2 -43.5q0 -23 -2 -45.5t-6 -42.5h-803l-8 33q18 12 46.5 41.5t54.5 75t44 103.5t18 128q0 12 -1 30.5t-5 65.5h-127q-6 31 -6 70q0 33 6 74h109q-8 47 -8 112q0 74 20.5 145.5t67.5 127t121.5 89t185.5 33.5q84 0 150.5 -14t125.5 -41 q-4 -41 -15 -75.5t-32 -84.5q-59 23 -106 34t-111 11q-63 0 -104 -19t-65.5 -52t-34 -74t-9.5 -86q0 -27 2 -54.5t6 -51.5h353q4 -16 6 -35t2 -37q0 -16 -2 -35.5t-6 -36.5h-336q4 -29 7 -54.5t3 -51.5q0 -113 -59 -197h510z" />
<glyph unicode="&#xf63c;" horiz-adv-x="1062" d="M360 612l-317 498q27 4 55.5 6t57.5 2t59.5 -2t48.5 -6l275 -469l274 469q49 6 102 6q49 0 105 -6l-315 -498h245q6 -29 6 -51q0 -29 -6 -59h-315v-154h315q6 -29 6 -51q0 -29 -6 -59h-315v-238q-27 -4 -52.5 -6t-50.5 -2t-50 2t-48 6v238h-297q-8 25 -8 53q0 31 8 57 h297v154h-297q-8 25 -8 53q0 31 8 57h223z" />
<glyph unicode="&#xf63d;" horiz-adv-x="909" d="M350 690l6 45q23 190 110 292.5t271 102.5q51 0 90 -4t74 -14q-4 -53 -11 -90t-22 -76l-48 9q-28 5 -64 6q-45 0 -79 -9.5t-57.5 -35t-39 -70.5t-23.5 -117l-4 -39h229q6 -35 6 -69q0 -37 -6 -74h-247l-46 -361q-25 -193 -110.5 -295t-269.5 -102q-51 0 -90 5t-74 16 q4 51 11 87.5t21 77.5q18 -4 46 -9t67 -5q45 0 79 9.5t57.5 35t38 70.5t24.5 117l45 354h-182q-6 33 -7 69q0 33 7 74h198z" />
<glyph unicode="&#xf63e;" horiz-adv-x="577" d="M193 1122q45 6 96 6q55 0 104 -6l-12 -741q-43 -6 -88 -6q-49 0 -88 6zM182 0q-4 27 -6 52.5t-2 53.5q0 27 2 52.5t6 52.5q29 4 54.5 7t52.5 3q49 0 106 -10q4 -29 6 -53.5t2 -51.5q0 -59 -8 -106q-29 -4 -53.5 -6t-52.5 -2q-27 0 -53.5 2t-53.5 6z" />
<glyph unicode="&#xf63f;" horiz-adv-x="886" d="M313 623q39 4 88.5 14t92.5 33.5t71.5 60.5t28.5 94q0 80 -66.5 119t-179.5 39q-63 0 -118.5 -13.5t-100.5 -29.5q-23 35 -33 73t-14 81q80 29 146.5 40t146.5 11q205 0 310.5 -83t105.5 -228q0 -80 -32 -136.5t-76 -93.5t-94 -57.5t-87 -30.5v-131q-23 -4 -48.5 -6 t-47.5 -2q-23 0 -47.5 2t-45.5 6v238zM299 0q-8 47 -8 104q0 59 8 107q29 4 53.5 6t53.5 2q57 0 104 -8q4 -29 7 -53.5t3 -53.5q0 -47 -10 -104q-23 -4 -50.5 -6t-53.5 -2q-29 0 -54.5 2t-52.5 6z" />
<glyph unicode="&#xf640;" horiz-adv-x="933" d="M344 1122q18 4 40 5t40 1q16 0 38.5 -1t39.5 -5l248 -614q-43 -6 -84 -6q-43 0 -76 6l-45 121h-250l-45 -121q-35 -8 -82 -8q-16 0 -36.5 2t-37.5 6zM512 739l-90 254l-88 -254h178z" />
<glyph unicode="&#xf641;" horiz-adv-x="796" d="M551 815q0 94 -38 150.5t-116 56.5q-76 0 -113.5 -56.5t-37.5 -150.5q0 -96 38 -151.5t113 -55.5q78 0 116 55.5t38 151.5zM90 815q0 68 19.5 127t58.5 104.5t96.5 72t132.5 26.5q78 0 136.5 -26.5t96.5 -72t57.5 -104.5t19.5 -127t-19.5 -128t-57.5 -105t-96.5 -72 t-136.5 -27q-76 0 -133 27t-96 72t-58.5 105t-19.5 128z" />
</font>
</defs>
</svg>
